<?xml version="1.0" standalone="no"?>
<!DOCTYPE svg PUBLIC "-//W3C//DTD SVG 1.1//EN" "http://www.w3.org/Graphics/SVG/1.1/DTD/svg11.dtd" >
<svg xmlns="http://www.w3.org/2000/svg">
<metadata></metadata>
<defs>
<font id="droid_arabic_kufiregular" horiz-adv-x="0" >
<font-face units-per-em="2048" ascent="1638" descent="-410" />
<missing-glyph horiz-adv-x="696" />
<glyph unicode="&#x627;&#xfedf;&#xfee0;&#xfeea;" horiz-adv-x="3213" arabic-form="isolated" d="M653 0q-246 0 -383 124.5t-137 348.5q0 242 152 381t409 139h135v129h175v-962h483v1089h182v-1089h516v1089h182v-1249h-1714zM829 160v674h-129q-184 0 -284.5 -94.5t-100.5 -264.5q0 -153 87 -234t247 -81h180zM2826 1556h183v-1556h-183v1556zM1393 1339 q-80 0 -124 51t-44 148v129h106v-111q0 -55 16.5 -83.5t65.5 -28.5q90 0 90 94v180h96v-139q0 -54 19 -74t59 -20q56 0 75.5 26t19.5 86v152h106v-170q0 -96 -45 -147.5t-131 -51.5q-94 0 -143 62q-49 -103 -166 -103zM1493 2161h117v-338h-117v338z" />
<glyph unicode="&#x631;&#xfef3;&#xfe8e;&#x644;" horiz-adv-x="3285" arabic-form="isolated" d="M545 -492q-190 0 -301 140t-111 385q0 126 22 255.5t62 227.5h170q-70 -177 -70 -483q0 -175 70 -270t197 -95h100q178 0 261 81t83 245v1562h174v-1548q0 -248 -123 -374t-387 -126h-147zM1565 1556h182v-1396h532v833h183v-993h-897v1556zM2746 -492q-96 0 -209 58 l54 137q76 -35 151 -35q91 0 144 74t53 199v1052h172v-1042q0 -207 -94 -325t-271 -118zM1937 -410q-53 0 -83.5 32t-30.5 91q0 58 30 90.5t84 32.5q55 0 85 -33.5t30 -89.5t-30 -89.5t-85 -33.5zM2292 -410q-48 0 -81.5 29t-33.5 94t33.5 94t81.5 29q52 0 83 -31.5 t31 -91.5q0 -59 -30.5 -91t-83.5 -32z" />
<glyph unicode="&#xfedf;&#xfe82;" horiz-adv-x="1380" arabic-form="isolated" d="M92 160h459l-264 1120h190l264 -1120h56q217 0 217 237v1159h182v-1183q0 -170 -103 -271.5t-276 -101.5h-725v160zM45 1434q11 98 57 154.5t131 56.5q37 0 74 -14t71.5 -31t66 -31t57.5 -14q41 0 61.5 21.5t34.5 70.5h92q-11 -97 -57 -153.5t-131 -56.5q-37 0 -73 14 t-70 31t-66 31t-60 14q-42 0 -62 -21.5t-34 -71.5h-92z" />
<glyph unicode="&#xfee0;&#xfe82;" horiz-adv-x="1452" arabic-form="final" d="M92 160h459l-264 1120h190l264 -1120h273v1396h182v-1396h266q11 0 11 -8v-142q0 -10 -11 -10h-1370v160zM45 1434q11 98 57 154.5t131 56.5q37 0 74 -14t71.5 -31t66 -31t57.5 -14q41 0 61.5 21.5t34.5 70.5h92q-11 -97 -57 -153.5t-131 -56.5q-37 0 -73 14t-70 31 t-66 31t-60 14q-42 0 -62 -21.5t-34 -71.5h-92z" />
<glyph unicode="&#xfedf;&#xfe84;" horiz-adv-x="1380" arabic-form="isolated" d="M92 160h459l-264 1120h190l264 -1120h56q217 0 217 237v1159h182v-1183q0 -170 -103 -271.5t-276 -101.5h-725v160zM141 1547l97 14q-72 47 -72 130q0 88 57.5 136t151.5 48q80 0 135 -31l-31 -92q-41 25 -102 25q-45 0 -76 -25.5t-31 -79.5q0 -35 18 -59.5t44 -36.5 q20 5 98 15.5t107 10.5v-100q-16 0 -72.5 -5.5t-208.5 -25.5l-115 -18v94z" />
<glyph unicode="&#xfee0;&#xfe84;" horiz-adv-x="1452" arabic-form="final" d="M92 160h459l-264 1120h190l264 -1120h273v1396h182v-1396h266q11 0 11 -8v-142q0 -10 -11 -10h-1370v160zM141 1547l97 14q-72 47 -72 130q0 88 57.5 136t151.5 48q80 0 135 -31l-31 -92q-41 25 -102 25q-45 0 -76 -25.5t-31 -79.5q0 -35 18 -59.5t44 -36.5q20 5 98 15.5 t107 10.5v-100q-16 0 -72.5 -5.5t-208.5 -25.5l-115 -18v94z" />
<glyph unicode="&#xfedf;&#xfe88;" horiz-adv-x="1380" arabic-form="isolated" d="M92 160h459l-264 1120h190l264 -1120h56q217 0 217 237v1159h182v-1183q0 -170 -103 -271.5t-276 -101.5h-725v160zM473 -527l97 14q-29 18 -50.5 51t-21.5 78q0 86 55.5 135t153.5 49q80 0 135 -31l-31 -92q-41 25 -102 25q-45 0 -76 -25.5t-31 -79.5q0 -65 62 -96 q20 5 102 16t103 11v-101q-46 0 -194.5 -19t-201.5 -30v95z" />
<glyph unicode="&#xfee0;&#xfe88;" horiz-adv-x="1452" arabic-form="final" d="M92 160h459l-264 1120h190l264 -1120h273v1396h182v-1396h266q11 0 11 -8v-142q0 -10 -11 -10h-1370v160zM473 -527l97 14q-29 18 -50.5 51t-21.5 78q0 86 55.5 135t153.5 49q80 0 135 -31l-31 -92q-41 25 -102 25q-45 0 -76 -25.5t-31 -79.5q0 -65 62 -96q20 5 102 16 t103 11v-101q-46 0 -194.5 -19t-201.5 -30v95z" />
<glyph unicode="&#xfedf;&#xfe8e;" horiz-adv-x="1380" arabic-form="isolated" d="M92 160h459l-264 1120h190l264 -1120h56q217 0 217 237v1159h182v-1183q0 -170 -103 -271.5t-276 -101.5h-725v160z" />
<glyph unicode="&#xfee0;&#xfe8e;" horiz-adv-x="1452" arabic-form="final" d="M92 160h459l-264 1120h190l264 -1120h273v1396h182v-1396h266q11 0 11 -8v-142q0 -10 -11 -10h-1370v160z" />
<glyph unicode="&#xfedf;&#xfb51;" horiz-adv-x="1380" d="M92 160h459l-264 1120h190l264 -1120h56q217 0 217 237v1159h182v-1183q0 -170 -103 -271.5t-276 -101.5h-725v160zM90 1527h94q72 209 229 209q85 0 130.5 -55t45.5 -154v-94h-499v94zM485 1527q0 60 -17.5 86.5t-54.5 26.5q-36 0 -68.5 -32t-47.5 -81h188z" />
<glyph unicode="&#xfee0;&#xfb51;" horiz-adv-x="1452" d="M92 160h459l-264 1120h190l264 -1120h273v1396h182v-1396h266q11 0 11 -8v-142q0 -10 -11 -10h-1370v160zM90 1527h94q72 209 229 209q85 0 130.5 -55t45.5 -154v-94h-499v94zM485 1527q0 60 -17.5 86.5t-54.5 26.5q-36 0 -68.5 -32t-47.5 -81h188z" />
<glyph unicode="&#x66e;" horiz-adv-x="616" d="M-10 0q-10 0 -10 10v142q0 8 10 8h270v833h182v-993h-452z" />
<glyph unicode="&#x66e;" horiz-adv-x="698" d="M-10 0q-10 0 -10 10v142q0 8 10 8h270v833h182v-833h267q10 0 10 -8v-142q0 -10 -10 -10h-719z" />
<glyph unicode="&#x66e;" horiz-adv-x="1681" d="M516 0q-177 0 -280 106.5t-103 290.5q0 68 14.5 157t36.5 151h164q-31 -148 -31 -293q0 -112 53 -182t140 -70h735v833h174v-833h273q10 0 10 -8v-142q0 -10 -10 -10h-1176z" />
<glyph unicode="&#x66f;" horiz-adv-x="1198" d="M850 160v674h-88q-182 0 -283.5 -95t-101.5 -268q0 -311 280 -311h193zM-10 0q-10 0 -10 10v142q0 8 10 8h311q-52 59 -79 143t-27 166q0 240 150.5 382t410.5 142h268v-993h-1034z" />
<glyph unicode="&#x66f;" horiz-adv-x="1231" d="M850 160v674h-88q-183 0 -284 -96.5t-101 -268.5q0 -309 280 -309h193zM-10 0q-10 0 -10 10v142q0 8 10 8h311q-52 59 -79 143t-27 166q0 244 151.5 384t409.5 140h268v-833h217q6 0 9 -5l1 -5v-142q0 -8 -10 -8h-1251z" />
<glyph unicode="&#x66f;" horiz-adv-x="1835" d="M1446 160v674h-88q-182 0 -283.5 -96t-101.5 -269q0 -160 69.5 -234.5t210.5 -74.5h193zM1845 160q10 0 10 -8v-142q0 -10 -10 -10h-225v-12q0 -480 -518 -480h-484q-225 0 -355 133t-130 361q0 261 84 483h170q-70 -196 -70 -471q0 -166 88.5 -256t249.5 -90h414 q200 0 288.5 77.5t88.5 240.5v14h-189q-227 0 -346.5 120t-119.5 347q0 243 153 384.5t408 141.5h268v-833h225z" />
<glyph unicode="&#x672;" horiz-adv-x="647" d="M205 1434h182v-1274h270q11 0 11 -8v-142q0 -10 -11 -10h-452v1434zM217 1552q-27 0 -47.5 5t-38 10.5t-32.5 10.5t-31 5q-45 0 -97 -45l-47 43q44 55 74 73.5t57 18.5q20 0 59 -15q39 -16 79 -16q-72 47 -72 130q0 88 57.5 136t151.5 48q80 0 135 -31l-31 -92 q-41 25 -102 25q-45 0 -76 -25.5t-31 -79.5q0 -35 18 -59.5t44 -36.5q22 2 96.5 13.5t108.5 19.5v-101q-31 -7 -137 -22t-138 -15z" />
<glyph unicode="&#x673;" horiz-adv-x="647" d="M205 1556h182v-1396h270q11 0 11 -8v-142q0 -10 -11 -10h-452v1556zM225 -522q-42 0 -85 15q-44 15 -64 15q-45 0 -97 -45l-47 43q45 57 74.5 75t56.5 18q20 0 59 -15q39 -16 79 -16q-29 18 -50.5 51t-21.5 78q0 86 55.5 135t153.5 49q80 0 135 -31l-31 -92 q-41 25 -102 25q-45 0 -76 -25.5t-31 -79.5q0 -65 62 -96q22 2 96.5 13.5t108.5 19.5v-100q-54 -12 -154.5 -24.5t-120.5 -12.5z" />
<glyph unicode="&#x675;" horiz-adv-x="647" d="M205 1434h182v-1274h270q11 0 11 -8v-142q0 -10 -11 -10h-452v1434zM489 1107l97 14q-72 47 -72 130q0 88 57.5 136t151.5 48q80 0 135 -31l-31 -92q-41 25 -102 25q-45 0 -76 -25.5t-31 -79.5q0 -35 18 -59.5t44 -36.5q20 5 98 15.5t107 10.5v-100q-16 0 -72.5 -5.5 t-208.5 -25.5l-115 -18v94z" />
<glyph unicode="&#x676;" horiz-adv-x="1133" d="M801 160v674h-88q-182 0 -283.5 -96t-101.5 -269q0 -160 69.5 -234.5t210.5 -74.5h193zM975 -49q0 -209 -123.5 -326t-349.5 -117q-209 0 -369 105l82 137q66 -35 136 -58.5t155 -23.5q139 0 218 74.5t79 198.5v59h-201q-218 0 -337.5 120t-119.5 347q0 241 153 383.5 t409 142.5h268v-833h168q10 0 10 -8v-142q0 -10 -10 -10h-168v-49zM782 1267l97 14q-72 47 -72 130q0 88 57.5 136t151.5 48q80 0 135 -31l-31 -92q-41 25 -102 25q-45 0 -76 -25.5t-31 -79.5q0 -35 18 -59.5t44 -36.5q20 5 98 15.5t107 10.5v-100q-16 0 -72.5 -5.5 t-208.5 -25.5l-115 -18v94z" />
<glyph unicode="&#x677;" horiz-adv-x="1133" d="M801 160v674h-88q-182 0 -283.5 -96t-101.5 -269q0 -160 69.5 -234.5t210.5 -74.5h193zM975 -49q0 -209 -123.5 -326t-349.5 -117q-209 0 -369 105l82 137q66 -35 136 -58.5t155 -23.5q139 0 218 74.5t79 198.5v59h-201q-218 0 -337.5 120t-119.5 347q0 241 153 383.5 t409 142.5h268v-833h168q10 0 10 -8v-142q0 -10 -10 -10h-168v-49zM782 1267l97 14q-72 47 -72 130q0 88 57.5 136t151.5 48q80 0 135 -31l-31 -92q-41 25 -102 25q-45 0 -76 -25.5t-31 -79.5q0 -35 18 -59.5t44 -36.5q20 5 98 15.5t107 10.5v-100q-16 0 -72.5 -5.5 t-208.5 -25.5l-115 -18v94zM197 1119q-114 0 -209 68l59 86q76 -51 146 -51q60 0 102 14q-65 83 -65 174q0 78 51 124t133 46t129 -46.5t47 -115.5q0 -73 -54.5 -143.5t-146.5 -113t-192 -42.5zM385 1271q54 29 76.5 66.5t22.5 72.5q0 32 -21 52t-53 20q-31 0 -53.5 -20 t-22.5 -62q0 -63 51 -129z" />
<glyph unicode="&#x678;" horiz-adv-x="1974" d="M545 -492q-192 0 -302 133t-110 361q0 107 17.5 193t54.5 176h170q-23 -57 -35.5 -109.5t-17.5 -101.5t-5 -146q0 -166 69 -256t198 -90h381q146 0 242 54.5t96 130.5q0 42 -38 72t-115 52q-155 44 -212.5 77t-88 82t-30.5 116q0 118 70.5 228t182.5 178.5t224 68.5 q69 0 122.5 -25t100.5 -72.5t117 -157.5q88 -142 130.5 -191t72.5 -72.5t63 -36t72 -12.5h11q10 0 10 -8v-142q0 -10 -10 -10h-11q-86 0 -165.5 38.5t-163.5 127.5q-24 25 -105 141q-99 140 -157 188t-109 48q-56 0 -120 -43t-107 -107.5t-43 -116.5q0 -34 36.5 -61 t117.5 -51q147 -43 208.5 -75t93 -75.5t31.5 -99.5q0 -406 -526 -406h-420zM1044 980l97 14q-72 47 -72 130q0 88 57.5 136t151.5 48q80 0 135 -31l-31 -92q-41 25 -102 25q-45 0 -76 -25.5t-31 -79.5q0 -35 18 -59.5t44 -36.5q20 5 98 15.5t107 10.5v-100q-16 0 -72.5 -5.5 t-208.5 -25.5l-115 -18v94z" />
<glyph unicode="&#x67a;" horiz-adv-x="616" arabic-form="initial" d="M-10 0q-10 0 -10 10v142q0 8 10 8h270v833h182v-993h-452zM340 1188q-53 0 -84 32t-31 91t30.5 91t84.5 32q55 0 85 -33.5t30 -89.5t-30 -89.5t-85 -33.5zM340 1559q-53 0 -84 32t-31 90q0 59 30.5 91t84.5 32q55 0 85 -33.5t30 -89.5q0 -55 -30 -88.5t-85 -33.5z" />
<glyph unicode="&#x67a;" horiz-adv-x="801" arabic-form="medial" d="M-10 0q-10 0 -10 10v142q0 8 10 8h332v833h182v-833h307q10 0 10 -8v-142q0 -10 -10 -10h-821zM412 1188q-53 0 -84 32t-31 91t30.5 91t84.5 32q55 0 85 -33.5t30 -89.5t-30 -89.5t-85 -33.5zM412 1559q-53 0 -84 32t-31 90q0 59 30.5 91t84.5 32q55 0 85 -33.5t30 -89.5 q0 -55 -30 -88.5t-85 -33.5z" />
<glyph unicode="&#x67a;" horiz-adv-x="1681" arabic-form="final" d="M516 0q-177 0 -280 106.5t-103 290.5q0 68 14.5 157t36.5 151h164q-31 -148 -31 -293q0 -112 53 -182t140 -70h735v833h174v-833h273q10 0 10 -8v-142q0 -10 -10 -10h-1176zM772 749q-53 0 -84 32t-31 91t30.5 91t84.5 32q55 0 85 -33.5t30 -89.5t-30 -89.5t-85 -33.5z M772 1120q-53 0 -84 32t-31 90q0 59 30.5 91t84.5 32q55 0 85 -33.5t30 -89.5q0 -55 -30 -88.5t-85 -33.5z" />
<glyph unicode="&#x67b;" horiz-adv-x="616" arabic-form="initial" d="M-10 0q-10 0 -10 10v142q0 8 10 8h270v833h182v-993h-452zM340 -780q-53 0 -84 32t-31 91q0 58 31 90t84 32q54 0 84.5 -33t30.5 -89t-30 -89.5t-85 -33.5zM340 -410q-53 0 -84 32t-31 91t30.5 91t84.5 32q55 0 85 -33.5t30 -89.5t-30 -89.5t-85 -33.5z" />
<glyph unicode="&#x67b;" horiz-adv-x="698" arabic-form="medial" d="M-10 0q-10 0 -10 10v142q0 8 10 8h270v833h182v-833h267q10 0 10 -8v-142q0 -10 -10 -10h-719zM340 -780q-53 0 -84 32t-31 91q0 58 31 90t84 32q54 0 84.5 -33t30.5 -89t-30 -89.5t-85 -33.5zM340 -410q-53 0 -84 32t-31 91t30.5 91t84.5 32q55 0 85 -33.5t30 -89.5 t-30 -89.5t-85 -33.5z" />
<glyph unicode="&#x67b;" horiz-adv-x="1681" arabic-form="final" d="M516 0q-177 0 -280 106.5t-103 290.5q0 68 14.5 157t36.5 151h164q-31 -148 -31 -293q0 -112 53 -182t140 -70h735v833h174v-833h273q10 0 10 -8v-142q0 -10 -10 -10h-1176zM854 -780q-53 0 -84 32t-31 91q0 58 31 90t84 32q54 0 84.5 -33t30.5 -89t-30 -89.5t-85 -33.5z M854 -410q-53 0 -84 32t-31 91t30.5 91t84.5 32q55 0 85 -33.5t30 -89.5t-30 -89.5t-85 -33.5z" />
<glyph unicode="&#x67c;" horiz-adv-x="766" d="M-10 0q-10 0 -10 10v142q0 8 10 8h393v833h182v-993h-575zM285 1188q-48 0 -81.5 29t-33.5 94t33.5 94t81.5 29q52 0 83 -31.5t31 -91.5q0 -59 -30.5 -91t-83.5 -32zM639 1188q-53 0 -84 32t-31 91t30.5 91t84.5 32q55 0 85 -33.5t30 -89.5t-30 -89.5t-85 -33.5z M299 -327q-102 0 -162.5 57.5t-60.5 157.5q0 101 61 158t162 57q103 0 166 -58.5t63 -154.5q0 -99 -63 -158t-166 -59zM299 -224q49 0 81 29t32 83t-32 83.5t-81 29.5q-50 0 -81.5 -29.5t-31.5 -83.5q0 -112 113 -112z" />
<glyph unicode="&#x67c;" horiz-adv-x="801" d="M-10 0q-10 0 -10 10v142q0 8 10 8h332v833h182v-833h307q10 0 10 -8v-142q0 -10 -10 -10h-821zM234 1188q-48 0 -81.5 29t-33.5 94t33.5 94t81.5 29q52 0 83 -31.5t31 -91.5q0 -59 -30.5 -91t-83.5 -32zM588 1188q-53 0 -84 32t-31 91t30.5 91t84.5 32q55 0 85 -33.5 t30 -89.5t-30 -89.5t-85 -33.5zM424 -327q-102 0 -162.5 57.5t-60.5 157.5q0 101 61 158t162 57q103 0 166 -58.5t63 -154.5q0 -99 -63 -158t-166 -59zM424 -224q49 0 81 29t32 83t-32 83.5t-81 29.5q-50 0 -81.5 -29.5t-31.5 -83.5q0 -112 113 -112z" />
<glyph unicode="&#x67c;" horiz-adv-x="1681" d="M516 0q-177 0 -280 106.5t-103 290.5q0 68 14.5 157t36.5 151h164q-31 -148 -31 -293q0 -112 53 -182t140 -70h735v833h174v-833h273q10 0 10 -8v-142q0 -10 -10 -10h-1176zM827 -327q-102 0 -162.5 57.5t-60.5 157.5q0 101 61 158t162 57q103 0 166 -58.5t63 -154.5 q0 -99 -63 -158t-166 -59zM827 -224q49 0 81 29t32 83t-32 83.5t-81 29.5q-50 0 -81.5 -29.5t-31.5 -83.5q0 -112 113 -112zM598 994q-48 0 -81.5 29t-33.5 94t33.5 94t81.5 29q52 0 83 -31.5t31 -91.5q0 -59 -30.5 -91t-83.5 -32zM952 994q-53 0 -84 32t-31 91t30.5 91 t84.5 32q55 0 85 -33.5t30 -89.5t-30 -89.5t-85 -33.5z" />
<glyph unicode="&#x67d;" horiz-adv-x="766" d="M-10 0q-10 0 -10 10v142q0 8 10 8h393v833h182v-993h-575zM463 1411q46 0 76 -26.5t30 -86.5q0 -58 -30 -85t-76 -27q-43 0 -74.5 27t-31.5 85q0 60 31.5 86.5t74.5 26.5zM639 1688q48 0 81.5 -29t33.5 -94t-33.5 -94t-81.5 -29q-55 0 -85 33.5t-30 89.5t30 89.5t85 33.5 zM285 1688q53 0 84 -32t31 -91t-30.5 -91t-84.5 -32q-53 0 -84 32t-31 91t30.5 91t84.5 32z" />
<glyph unicode="&#x67d;" horiz-adv-x="801" d="M-10 0q-10 0 -10 10v142q0 8 10 8h332v833h182v-833h307q10 0 10 -8v-142q0 -10 -10 -10h-821zM414 1411q46 0 76 -26.5t30 -86.5q0 -58 -30 -85t-76 -27q-43 0 -74.5 27t-31.5 85q0 60 31.5 86.5t74.5 26.5zM590 1688q48 0 81.5 -29t33.5 -94t-33.5 -94t-81.5 -29 q-55 0 -85 33.5t-30 89.5t30 89.5t85 33.5zM236 1688q53 0 84 -32t31 -91t-30.5 -91t-84.5 -32q-53 0 -84 32t-31 91t30.5 91t84.5 32z" />
<glyph unicode="&#x67d;" horiz-adv-x="1681" d="M516 0q-177 0 -280 106.5t-103 290.5q0 68 14.5 157t36.5 151h164q-31 -148 -31 -293q0 -112 53 -182t140 -70h735v833h174v-833h273q10 0 10 -8v-142q0 -10 -10 -10h-1176zM786 963q46 0 76 -26.5t30 -86.5q0 -58 -30 -85t-76 -27q-43 0 -74.5 27t-31.5 85 q0 60 31.5 86.5t74.5 26.5zM962 1240q48 0 81.5 -29t33.5 -94t-33.5 -94t-81.5 -29q-55 0 -85 33.5t-30 89.5t30 89.5t85 33.5zM608 1240q53 0 84 -32t31 -91t-30.5 -91t-84.5 -32q-53 0 -84 32t-31 91t30.5 91t84.5 32z" />
<glyph unicode="&#x67f;" horiz-adv-x="766" arabic-form="initial" d="M-10 0q-10 0 -10 10v142q0 8 10 8h393v833h182v-993h-575zM297 1219q-49 0 -76.5 28t-27.5 82q0 58 30.5 84.5t73.5 26.5q42 0 72.5 -26t30.5 -85q0 -53 -27.5 -81.5t-75.5 -28.5zM615 1219q-44 0 -73.5 25.5t-29.5 84.5t29.5 85t73.5 26q47 0 75.5 -29.5t28.5 -81.5 t-28 -81t-76 -29zM297 1561q-49 0 -76.5 28t-27.5 82q0 58 30.5 84.5t73.5 26.5q42 0 72.5 -26t30.5 -85q0 -53 -27.5 -81.5t-75.5 -28.5zM615 1561q-44 0 -73.5 25.5t-29.5 84.5t29.5 85t73.5 26q47 0 75.5 -29.5t28.5 -81.5t-28 -81t-76 -29z" />
<glyph unicode="&#x67f;" horiz-adv-x="801" arabic-form="medial" d="M-10 0q-10 0 -10 10v142q0 8 10 8h332v833h182v-833h307q10 0 10 -8v-142q0 -10 -10 -10h-821zM246 1219q-49 0 -76.5 28t-27.5 82q0 58 30.5 84.5t73.5 26.5q42 0 72.5 -26t30.5 -85q0 -53 -27.5 -81.5t-75.5 -28.5zM564 1219q-44 0 -73.5 25.5t-29.5 84.5t29.5 85 t73.5 26q47 0 75.5 -29.5t28.5 -81.5t-28 -81t-76 -29zM246 1561q-49 0 -76.5 28t-27.5 82q0 58 30.5 84.5t73.5 26.5q42 0 72.5 -26t30.5 -85q0 -53 -27.5 -81.5t-75.5 -28.5zM564 1561q-44 0 -73.5 25.5t-29.5 84.5t29.5 85t73.5 26q47 0 75.5 -29.5t28.5 -81.5t-28 -81 t-76 -29z" />
<glyph unicode="&#x67f;" horiz-adv-x="1681" arabic-form="final" d="M516 0q-177 0 -280 106.5t-103 290.5q0 68 14.5 157t36.5 151h164q-31 -148 -31 -293q0 -112 53 -182t140 -70h735v833h174v-833h273q10 0 10 -8v-142q0 -10 -10 -10h-1176zM626 792q-49 0 -76.5 28t-27.5 82q0 58 30.5 84.5t73.5 26.5q42 0 72.5 -26t30.5 -85 q0 -53 -27.5 -81.5t-75.5 -28.5zM944 792q-44 0 -73.5 25.5t-29.5 84.5t29.5 85t73.5 26q47 0 75.5 -29.5t28.5 -81.5t-28 -81t-76 -29zM626 1134q-49 0 -76.5 28t-27.5 82q0 58 30.5 84.5t73.5 26.5q42 0 72.5 -26t30.5 -85q0 -53 -27.5 -81.5t-75.5 -28.5zM944 1134 q-44 0 -73.5 25.5t-29.5 84.5t29.5 85t73.5 26q47 0 75.5 -29.5t28.5 -81.5t-28 -81t-76 -29z" />
<glyph unicode="&#x680;" horiz-adv-x="766" arabic-form="initial" d="M-10 0q-10 0 -10 10v142q0 8 10 8h393v833h182v-993h-575zM125 -762q-47 0 -75.5 28.5t-28.5 82.5q0 58 30.5 84t73.5 26q42 0 72.5 -26t30.5 -84q0 -59 -30.5 -85t-72.5 -26zM443 -762q-44 0 -73.5 26t-29.5 85t29.5 84.5t73.5 25.5q49 0 76.5 -29.5t27.5 -80.5 q0 -52 -28.5 -81.5t-75.5 -29.5zM125 -420q-47 0 -75.5 28.5t-28.5 82.5q0 58 30.5 84t73.5 26q42 0 72.5 -26t30.5 -84q0 -59 -30.5 -85t-72.5 -26zM443 -420q-44 0 -73.5 26t-29.5 85t29.5 84.5t73.5 25.5q49 0 76.5 -29.5t27.5 -80.5q0 -52 -28.5 -81.5t-75.5 -29.5z" />
<glyph unicode="&#x680;" horiz-adv-x="801" arabic-form="medial" d="M-10 0q-10 0 -10 10v142q0 8 10 8h332v833h182v-833h307q10 0 10 -8v-142q0 -10 -10 -10h-821zM258 -762q-47 0 -75.5 28.5t-28.5 82.5q0 58 30.5 84t73.5 26q42 0 72.5 -26t30.5 -84q0 -59 -30.5 -85t-72.5 -26zM576 -762q-44 0 -73.5 26t-29.5 85t29.5 84.5t73.5 25.5 q49 0 76.5 -29.5t27.5 -80.5q0 -52 -28.5 -81.5t-75.5 -29.5zM258 -420q-47 0 -75.5 28.5t-28.5 82.5q0 58 30.5 84t73.5 26q42 0 72.5 -26t30.5 -84q0 -59 -30.5 -85t-72.5 -26zM576 -420q-44 0 -73.5 26t-29.5 85t29.5 84.5t73.5 25.5q49 0 76.5 -29.5t27.5 -80.5 q0 -52 -28.5 -81.5t-75.5 -29.5z" />
<glyph unicode="&#x680;" horiz-adv-x="1681" arabic-form="final" d="M516 0q-177 0 -280 106.5t-103 290.5q0 68 14.5 157t36.5 151h164q-31 -148 -31 -293q0 -112 53 -182t140 -70h735v833h174v-833h273q10 0 10 -8v-142q0 -10 -10 -10h-1176zM629 -762q-47 0 -75.5 28.5t-28.5 82.5q0 58 30.5 84t73.5 26q42 0 72.5 -26t30.5 -84 q0 -59 -30.5 -85t-72.5 -26zM947 -762q-44 0 -73.5 26t-29.5 85t29.5 84.5t73.5 25.5q49 0 76.5 -29.5t27.5 -80.5q0 -52 -28.5 -81.5t-75.5 -29.5zM629 -420q-47 0 -75.5 28.5t-28.5 82.5q0 58 30.5 84t73.5 26q42 0 72.5 -26t30.5 -84q0 -59 -30.5 -85t-72.5 -26z M947 -420q-44 0 -73.5 26t-29.5 85t29.5 84.5t73.5 25.5q49 0 76.5 -29.5t27.5 -80.5q0 -52 -28.5 -81.5t-75.5 -29.5z" />
<glyph unicode="&#x681;" horiz-adv-x="1188" d="M-10 0q-10 0 -10 10v142q0 8 10 8h878q-75 75 -129 375q-30 177 -87 248t-171 71q-142 0 -297 -82l-71 141q88 57 177.5 79t192.5 22q125 0 209 -45t133.5 -133.5t75.5 -253.5q30 -183 67.5 -282.5t86.5 -143.5v-156h-1065zM248 1275l97 14q-72 47 -72 130q0 88 57.5 136 t151.5 48q80 0 135 -31l-31 -92q-41 25 -102 25q-45 0 -76 -25.5t-31 -79.5q0 -35 18 -59.5t44 -36.5q20 5 98 15.5t107 10.5v-100q-16 0 -72.5 -5.5t-208.5 -25.5l-115 -18v94z" />
<glyph unicode="&#x681;" horiz-adv-x="1176" d="M-10 0q-10 0 -10 10v142q0 8 10 8h878q-79 79 -129 375q-29 174 -87 246.5t-171 72.5q-142 0 -297 -82l-71 141q88 57 177.5 79t192.5 22q125 0 209 -45t133.5 -133.5t75.5 -253.5q47 -321 148 -422h137q10 0 10 -8v-142q0 -10 -10 -10h-1196zM248 1275l97 14 q-72 47 -72 130q0 88 57.5 136t151.5 48q80 0 135 -31l-31 -92q-41 25 -102 25q-45 0 -76 -25.5t-31 -79.5q0 -35 18 -59.5t44 -36.5q20 5 98 15.5t107 10.5v-100q-16 0 -72.5 -5.5t-208.5 -25.5l-115 -18v94z" />
<glyph unicode="&#x681;" horiz-adv-x="1257" d="M518 -657q-198 0 -312 103.5t-114 291.5q0 130 77 239t241 199t452 174q-22 70 -41 185q-27 162 -100.5 240.5t-198.5 78.5q-73 0 -176 -29.5t-182 -72.5l-72 141q79 51 198 86t234 35q392 0 459 -432q32 -196 63 -271t81 -113t130 -38h11q10 0 10 -8v-142q0 -10 -10 -10 h-11q-112 0 -195.5 48.5t-141.5 156.5q-245 -67 -380 -133.5t-198 -145.5t-63 -172q0 -131 76 -192.5t237 -61.5q103 0 301 33l22 -141q-145 -31 -230 -40t-167 -9zM248 1275l97 14q-72 47 -72 130q0 88 57.5 136t151.5 48q80 0 135 -31l-31 -92q-41 25 -102 25 q-45 0 -76 -25.5t-31 -79.5q0 -35 18 -59.5t44 -36.5q20 5 98 15.5t107 10.5v-100q-16 0 -72.5 -5.5t-208.5 -25.5l-115 -18v94z" />
<glyph unicode="&#x682;" horiz-adv-x="1188" d="M-10 0q-10 0 -10 10v142q0 8 10 8h878q-75 75 -129 375q-30 177 -87 248t-171 71q-142 0 -297 -82l-71 141q88 57 177.5 79t192.5 22q125 0 209 -45t133.5 -133.5t75.5 -253.5q30 -183 67.5 -282.5t86.5 -143.5v-156h-1065zM442 1188q-53 0 -84 32t-31 91t30.5 91 t84.5 32q55 0 85 -33.5t30 -89.5t-30 -89.5t-85 -33.5zM442 1559q-53 0 -84 32t-31 90q0 59 30.5 91t84.5 32q55 0 85 -33.5t30 -89.5q0 -55 -30 -88.5t-85 -33.5z" />
<glyph unicode="&#x682;" horiz-adv-x="1176" d="M-10 0q-10 0 -10 10v142q0 8 10 8h878q-79 79 -129 375q-29 174 -87 246.5t-171 72.5q-142 0 -297 -82l-71 141q88 57 177.5 79t192.5 22q125 0 209 -45t133.5 -133.5t75.5 -253.5q47 -321 148 -422h137q10 0 10 -8v-142q0 -10 -10 -10h-1196zM442 1188q-53 0 -84 32 t-31 91t30.5 91t84.5 32q55 0 85 -33.5t30 -89.5t-30 -89.5t-85 -33.5zM442 1559q-53 0 -84 32t-31 90q0 59 30.5 91t84.5 32q55 0 85 -33.5t30 -89.5q0 -55 -30 -88.5t-85 -33.5z" />
<glyph unicode="&#x682;" horiz-adv-x="1257" d="M518 -657q-198 0 -312 103.5t-114 291.5q0 130 77 239t241 199t452 174q-22 70 -41 185q-27 162 -100.5 240.5t-198.5 78.5q-73 0 -176 -29.5t-182 -72.5l-72 141q79 51 198 86t234 35q392 0 459 -432q32 -196 63 -271t81 -113t130 -38h11q10 0 10 -8v-142q0 -10 -10 -10 h-11q-112 0 -195.5 48.5t-141.5 156.5q-245 -67 -380 -133.5t-198 -145.5t-63 -172q0 -131 76 -192.5t237 -61.5q103 0 301 33l22 -141q-145 -31 -230 -40t-167 -9zM442 1188q-53 0 -84 32t-31 91t30.5 91t84.5 32q55 0 85 -33.5t30 -89.5t-30 -89.5t-85 -33.5zM442 1559 q-53 0 -84 32t-31 90q0 59 30.5 91t84.5 32q55 0 85 -33.5t30 -89.5q0 -55 -30 -88.5t-85 -33.5z" />
<glyph unicode="&#x683;" horiz-adv-x="1188" arabic-form="initial" d="M-10 0q-10 0 -10 10v142q0 8 10 8h878q-75 75 -129 375q-30 177 -87 248t-171 71q-142 0 -297 -82l-71 141q88 57 177.5 79t192.5 22q125 0 209 -45t133.5 -133.5t75.5 -253.5q30 -183 67.5 -282.5t86.5 -143.5v-156h-1065zM320 -410q-48 0 -81.5 29t-33.5 94t33.5 94 t81.5 29q52 0 83 -31.5t31 -91.5q0 -59 -30.5 -91t-83.5 -32zM674 -410q-53 0 -84 32t-31 91t30.5 91t84.5 32q55 0 85 -33.5t30 -89.5t-30 -89.5t-85 -33.5z" />
<glyph unicode="&#x683;" horiz-adv-x="1176" arabic-form="medial" d="M-10 0q-10 0 -10 10v142q0 8 10 8h878q-79 79 -129 375q-29 174 -87 246.5t-171 72.5q-142 0 -297 -82l-71 141q88 57 177.5 79t192.5 22q125 0 209 -45t133.5 -133.5t75.5 -253.5q47 -321 148 -422h137q10 0 10 -8v-142q0 -10 -10 -10h-1196zM320 -410q-48 0 -81.5 29 t-33.5 94t33.5 94t81.5 29q52 0 83 -31.5t31 -91.5q0 -59 -30.5 -91t-83.5 -32zM674 -410q-53 0 -84 32t-31 91t30.5 91t84.5 32q55 0 85 -33.5t30 -89.5t-30 -89.5t-85 -33.5z" />
<glyph unicode="&#x683;" horiz-adv-x="1257" arabic-form="final" d="M518 -657q-198 0 -312 103.5t-114 291.5q0 130 77 239t241 199t452 174q-22 70 -41 185q-27 162 -100.5 240.5t-198.5 78.5q-73 0 -176 -29.5t-182 -72.5l-72 141q79 51 198 86t234 35q392 0 459 -432q32 -196 63 -271t81 -113t130 -38h11q10 0 10 -8v-142q0 -10 -10 -10 h-11q-112 0 -195.5 48.5t-141.5 156.5q-245 -67 -380 -133.5t-198 -145.5t-63 -172q0 -131 76 -192.5t237 -61.5q103 0 301 33l22 -141q-145 -31 -230 -40t-167 -9zM608 -340q-48 0 -81.5 29t-33.5 94t33.5 94t81.5 29q52 0 83 -31.5t31 -91.5q0 -59 -30.5 -91t-83.5 -32z M962 -340q-53 0 -84 32t-31 91t30.5 91t84.5 32q55 0 85 -33.5t30 -89.5t-30 -89.5t-85 -33.5z" />
<glyph unicode="&#x684;" horiz-adv-x="1188" arabic-form="initial" d="M-10 0q-10 0 -10 10v142q0 8 10 8h878q-75 75 -129 375q-30 177 -87 248t-171 71q-142 0 -297 -82l-71 141q88 57 177.5 79t192.5 22q125 0 209 -45t133.5 -133.5t75.5 -253.5q30 -183 67.5 -282.5t86.5 -143.5v-156h-1065zM479 -780q-53 0 -84 32t-31 91q0 58 31 90 t84 32q54 0 84.5 -33t30.5 -89t-30 -89.5t-85 -33.5zM479 -410q-53 0 -84 32t-31 91t30.5 91t84.5 32q55 0 85 -33.5t30 -89.5t-30 -89.5t-85 -33.5z" />
<glyph unicode="&#x684;" horiz-adv-x="1176" arabic-form="medial" d="M-10 0q-10 0 -10 10v142q0 8 10 8h878q-79 79 -129 375q-29 174 -87 246.5t-171 72.5q-142 0 -297 -82l-71 141q88 57 177.5 79t192.5 22q125 0 209 -45t133.5 -133.5t75.5 -253.5q47 -321 148 -422h137q10 0 10 -8v-142q0 -10 -10 -10h-1196zM479 -780q-53 0 -84 32 t-31 91q0 58 31 90t84 32q54 0 84.5 -33t30.5 -89t-30 -89.5t-85 -33.5zM479 -410q-53 0 -84 32t-31 91t30.5 91t84.5 32q55 0 85 -33.5t30 -89.5t-30 -89.5t-85 -33.5z" />
<glyph unicode="&#x684;" horiz-adv-x="1257" arabic-form="final" d="M518 -657q-198 0 -312 103.5t-114 291.5q0 130 77 239t241 199t452 174q-22 70 -41 185q-27 162 -100.5 240.5t-198.5 78.5q-73 0 -176 -29.5t-182 -72.5l-72 141q79 51 198 86t234 35q392 0 459 -432q32 -196 63 -271t81 -113t130 -38h11q10 0 10 -8v-142q0 -10 -10 -10 h-11q-112 0 -195.5 48.5t-141.5 156.5q-245 -67 -380 -133.5t-198 -145.5t-63 -172q0 -254 278 -254zM803 -655q-53 0 -84 32t-31 91q0 58 31 90t84 32q54 0 84.5 -33t30.5 -89t-30 -89.5t-85 -33.5zM803 -285q-53 0 -84 32t-31 91t30.5 91t84.5 32q55 0 85 -33.5t30 -89.5 t-30 -89.5t-85 -33.5z" />
<glyph unicode="&#x685;" horiz-adv-x="1188" d="M-10 0q-10 0 -10 10v142q0 8 10 8h878q-75 75 -129 375q-30 177 -87 248t-171 71q-142 0 -297 -82l-71 141q88 57 177.5 79t192.5 22q125 0 209 -45t133.5 -133.5t75.5 -253.5q30 -183 67.5 -282.5t86.5 -143.5v-156h-1065zM469 1464q-46 0 -76 26.5t-30 86.5q0 59 30 86 t76 27q43 0 74.5 -27.5t31.5 -85.5q0 -60 -31.5 -86.5t-74.5 -26.5zM293 1188q-48 0 -81.5 29t-33.5 94t33.5 94t81.5 29q55 0 85 -33.5t30 -89.5t-30 -89.5t-85 -33.5zM647 1188q-53 0 -84 32t-31 91t30.5 91t84.5 32q55 0 85 -33.5t30 -89.5t-30 -89.5t-85 -33.5z" />
<glyph unicode="&#x685;" horiz-adv-x="1176" d="M-10 0q-10 0 -10 10v142q0 8 10 8h878q-79 79 -129 375q-29 174 -87 246.5t-171 72.5q-142 0 -297 -82l-71 141q88 57 177.5 79t192.5 22q125 0 209 -45t133.5 -133.5t75.5 -253.5q47 -321 148 -422h137q10 0 10 -8v-142q0 -10 -10 -10h-1196zM469 1464q-46 0 -76 26.5 t-30 86.5q0 59 30 86t76 27q43 0 74.5 -27.5t31.5 -85.5q0 -60 -31.5 -86.5t-74.5 -26.5zM293 1188q-48 0 -81.5 29t-33.5 94t33.5 94t81.5 29q55 0 85 -33.5t30 -89.5t-30 -89.5t-85 -33.5zM647 1188q-53 0 -84 32t-31 91t30.5 91t84.5 32q55 0 85 -33.5t30 -89.5 t-30 -89.5t-85 -33.5z" />
<glyph unicode="&#x685;" horiz-adv-x="1257" d="M518 -657q-198 0 -312 103.5t-114 291.5q0 130 77 239t241 199t452 174q-22 70 -41 185q-27 162 -100.5 240.5t-198.5 78.5q-73 0 -176 -29.5t-182 -72.5l-72 141q79 51 198 86t234 35q392 0 459 -432q32 -196 63 -271t81 -113t130 -38h11q10 0 10 -8v-142q0 -10 -10 -10 h-11q-112 0 -195.5 48.5t-141.5 156.5q-245 -67 -380 -133.5t-198 -145.5t-63 -172q0 -131 76 -192.5t237 -61.5q103 0 301 33l22 -141q-145 -31 -230 -40t-167 -9zM469 1464q-46 0 -76 26.5t-30 86.5q0 59 30 86t76 27q43 0 74.5 -27.5t31.5 -85.5q0 -60 -31.5 -86.5 t-74.5 -26.5zM293 1188q-48 0 -81.5 29t-33.5 94t33.5 94t81.5 29q55 0 85 -33.5t30 -89.5t-30 -89.5t-85 -33.5zM647 1188q-53 0 -84 32t-31 91t30.5 91t84.5 32q55 0 85 -33.5t30 -89.5t-30 -89.5t-85 -33.5z" />
<glyph unicode="&#x687;" horiz-adv-x="1188" arabic-form="initial" d="M-10 0q-10 0 -10 10v142q0 8 10 8h878q-75 75 -129 375q-30 177 -87 248t-171 71q-142 0 -297 -82l-71 141q88 57 177.5 79t192.5 22q125 0 209 -45t133.5 -133.5t75.5 -253.5q30 -183 67.5 -282.5t86.5 -143.5v-156h-1065zM325 -762q-47 0 -75.5 28.5t-28.5 82.5 q0 58 30.5 84t73.5 26q42 0 72.5 -26t30.5 -84q0 -59 -30.5 -85t-72.5 -26zM643 -762q-44 0 -73.5 26t-29.5 85t29.5 84.5t73.5 25.5q49 0 76.5 -29.5t27.5 -80.5q0 -52 -28.5 -81.5t-75.5 -29.5zM325 -420q-47 0 -75.5 28.5t-28.5 82.5q0 58 30.5 84t73.5 26q42 0 72.5 -26 t30.5 -84q0 -59 -30.5 -85t-72.5 -26zM643 -420q-44 0 -73.5 26t-29.5 85t29.5 84.5t73.5 25.5q49 0 76.5 -29.5t27.5 -80.5q0 -52 -28.5 -81.5t-75.5 -29.5z" />
<glyph unicode="&#x687;" horiz-adv-x="1176" arabic-form="medial" d="M-10 0q-10 0 -10 10v142q0 8 10 8h878q-79 79 -129 375q-29 174 -87 246.5t-171 72.5q-142 0 -297 -82l-71 141q88 57 177.5 79t192.5 22q125 0 209 -45t133.5 -133.5t75.5 -253.5q47 -321 148 -422h137q10 0 10 -8v-142q0 -10 -10 -10h-1196zM325 -762q-47 0 -75.5 28.5 t-28.5 82.5q0 58 30.5 84t73.5 26q42 0 72.5 -26t30.5 -84q0 -59 -30.5 -85t-72.5 -26zM643 -762q-44 0 -73.5 26t-29.5 85t29.5 84.5t73.5 25.5q49 0 76.5 -29.5t27.5 -80.5q0 -52 -28.5 -81.5t-75.5 -29.5zM325 -420q-47 0 -75.5 28.5t-28.5 82.5q0 58 30.5 84t73.5 26 q42 0 72.5 -26t30.5 -84q0 -59 -30.5 -85t-72.5 -26zM643 -420q-44 0 -73.5 26t-29.5 85t29.5 84.5t73.5 25.5q49 0 76.5 -29.5t27.5 -80.5q0 -52 -28.5 -81.5t-75.5 -29.5z" />
<glyph unicode="&#x687;" horiz-adv-x="1257" arabic-form="final" d="M518 -657q-198 0 -312 103.5t-114 291.5q0 130 77 239t241 199t452 174q-22 70 -41 185q-27 162 -100.5 240.5t-198.5 78.5q-73 0 -176 -29.5t-182 -72.5l-72 141q79 51 198 86t234 35q392 0 459 -432q32 -196 63 -271t81 -113t130 -38h11q10 0 10 -8v-142q0 -10 -10 -10 h-11q-112 0 -195.5 48.5t-141.5 156.5q-245 -67 -380 -133.5t-198 -145.5t-63 -172q0 -254 278 -254zM733 -651q-47 0 -75.5 28.5t-28.5 82.5q0 58 30.5 84t73.5 26q42 0 72.5 -26t30.5 -84q0 -59 -30.5 -85t-72.5 -26zM1051 -651q-44 0 -73.5 26t-29.5 85t29.5 84.5 t73.5 25.5q49 0 76.5 -29.5t27.5 -80.5q0 -52 -28.5 -81.5t-75.5 -29.5zM733 -309q-47 0 -75.5 28.5t-28.5 82.5q0 58 30.5 84t73.5 26q42 0 72.5 -26t30.5 -84q0 -59 -30.5 -85t-72.5 -26zM1051 -309q-44 0 -73.5 26t-29.5 85t29.5 84.5t73.5 25.5q49 0 76.5 -29.5 t27.5 -80.5q0 -52 -28.5 -81.5t-75.5 -29.5z" />
<glyph unicode="&#x689;" horiz-adv-x="1165" d="M92 160h682q-40 275 -153 468.5t-322 334.5l66 155q236 -125 384.5 -367t198.5 -591h228q10 0 10 -8v-142q0 -10 -10 -10h-1084v160zM516 -327q-102 0 -162.5 57.5t-60.5 157.5q0 101 61 158t162 57q103 0 166 -58.5t63 -154.5q0 -99 -63 -158t-166 -59zM516 -224 q49 0 81 29t32 83t-32 83.5t-81 29.5q-50 0 -81.5 -29.5t-31.5 -83.5q0 -112 113 -112z" />
<glyph unicode="&#x68a;" horiz-adv-x="1165" d="M92 160h682q-40 275 -153 468.5t-322 334.5l66 155q236 -125 384.5 -367t198.5 -591h228q10 0 10 -8v-142q0 -10 -10 -10h-1084v160zM530 -410q-53 0 -84 32t-31 91t30.5 91t84.5 32q55 0 85 -33.5t30 -89.5t-30 -89.5t-85 -33.5z" />
<glyph unicode="&#x68b;" horiz-adv-x="1165" d="M92 160h682q-40 275 -153 468.5t-322 334.5l66 155q236 -125 384.5 -367t198.5 -591h228q10 0 10 -8v-142q0 -10 -10 -10h-1084v160zM178 1386h31v373h82v-260q25 60 62.5 96.5t97.5 36.5q151 0 151 -178v-156h-424v88zM520 1386v51q0 54 -18 80.5t-61 26.5 q-48 0 -84.5 -32.5t-65.5 -104.5v-21h229zM530 -410q-53 0 -84 32t-31 91t30.5 91t84.5 32q55 0 85 -33.5t30 -89.5t-30 -89.5t-85 -33.5z" />
<glyph unicode="&#x68c;" horiz-adv-x="1165" arabic-form="final" d="M92 160h682q-40 275 -153 468.5t-322 334.5l66 155q236 -125 384.5 -367t198.5 -591h228q10 0 10 -8v-142q0 -10 -10 -10h-1084v160zM187 1311q-48 0 -81.5 29t-33.5 94t33.5 94t81.5 29q52 0 83 -31.5t31 -91.5q0 -59 -30.5 -91t-83.5 -32zM541 1311q-53 0 -84 32 t-31 91t30.5 91t84.5 32q55 0 85 -33.5t30 -89.5t-30 -89.5t-85 -33.5z" />
<glyph unicode="&#x68d;" horiz-adv-x="1165" arabic-form="final" d="M92 160h682q-40 275 -153 468.5t-322 334.5l66 155q236 -125 384.5 -367t198.5 -591h228q10 0 10 -8v-142q0 -10 -10 -10h-1084v160zM355 -410q-48 0 -81.5 29t-33.5 94t33.5 94t81.5 29q52 0 83 -31.5t31 -91.5q0 -59 -30.5 -91t-83.5 -32zM709 -410q-53 0 -84 32 t-31 91t30.5 91t84.5 32q55 0 85 -33.5t30 -89.5t-30 -89.5t-85 -33.5z" />
<glyph unicode="&#x68e;" horiz-adv-x="1165" arabic-form="final" d="M92 160h682q-40 275 -153 468.5t-322 334.5l66 155q236 -125 384.5 -367t198.5 -591h228q10 0 10 -8v-142q0 -10 -10 -10h-1084v160zM362 1587q-46 0 -76 26.5t-30 86.5q0 59 30 86t76 27q43 0 74.5 -27.5t31.5 -85.5q0 -60 -31.5 -86.5t-74.5 -26.5zM186 1311 q-48 0 -81.5 29t-33.5 94t33.5 94t81.5 29q55 0 85 -33.5t30 -89.5t-30 -89.5t-85 -33.5zM540 1311q-53 0 -84 32t-31 91t30.5 91t84.5 32q55 0 85 -33.5t30 -89.5t-30 -89.5t-85 -33.5z" />
<glyph unicode="&#x68f;" horiz-adv-x="1165" d="M92 160h682q-40 275 -153 468.5t-322 334.5l66 155q236 -125 384.5 -367t198.5 -591h228q10 0 10 -8v-142q0 -10 -10 -10h-1084v160zM369 1526q46 0 76 -26.5t30 -86.5q0 -58 -30 -85t-76 -27q-43 0 -74.5 27t-31.5 85q0 60 31.5 86.5t74.5 26.5zM545 1803q48 0 81.5 -29 t33.5 -94t-33.5 -94t-81.5 -29q-55 0 -85 33.5t-30 89.5t30 89.5t85 33.5zM191 1803q53 0 84 -32t31 -91t-30.5 -91t-84.5 -32q-53 0 -84 32t-31 91t30.5 91t84.5 32z" />
<glyph unicode="&#x690;" horiz-adv-x="1165" d="M92 160h682q-40 275 -153 468.5t-322 334.5l66 155q236 -125 384.5 -367t198.5 -591h228q10 0 10 -8v-142q0 -10 -10 -10h-1084v160zM205 1219q-49 0 -76.5 28t-27.5 82q0 58 30.5 84.5t73.5 26.5q42 0 72.5 -26t30.5 -85q0 -53 -27.5 -81.5t-75.5 -28.5zM523 1219 q-44 0 -73.5 25.5t-29.5 84.5t29.5 85t73.5 26q47 0 75.5 -29.5t28.5 -81.5t-28 -81t-76 -29zM205 1561q-49 0 -76.5 28t-27.5 82q0 58 30.5 84.5t73.5 26.5q42 0 72.5 -26t30.5 -85q0 -53 -27.5 -81.5t-75.5 -28.5zM523 1561q-44 0 -73.5 25.5t-29.5 84.5t29.5 85t73.5 26 q47 0 75.5 -29.5t28.5 -81.5t-28 -81t-76 -29z" />
<glyph unicode="&#x692;" horiz-adv-x="735" d="M492 0v-49q0 -207 -94 -325t-271 -118q-98 0 -209 58l53 137q50 -22 82 -28.5t70 -6.5q92 0 144 75t52 198v1052h173v-833h253q11 0 11 -8v-142q0 -10 -11 -10h-253zM729 1601l-225 -408h-127l-228 408h160l129 -264l133 264h158z" />
<glyph unicode="&#x693;" horiz-adv-x="735" d="M492 0v-49q0 -207 -94 -325t-271 -118q-98 0 -209 58l53 137q50 -22 82 -28.5t70 -6.5q92 0 144 75t52 198v1052h173v-833h253q11 0 11 -8v-142q0 -10 -11 -10h-253zM442 -741q-102 0 -162.5 57.5t-60.5 157.5q0 101 61 158t162 57q103 0 166 -58.5t63 -154.5 q0 -99 -63 -158t-166 -59zM442 -638q49 0 81 29t32 83t-32 83.5t-81 29.5q-50 0 -81.5 -29.5t-31.5 -83.5q0 -112 113 -112z" />
<glyph unicode="&#x694;" horiz-adv-x="735" d="M492 0v-49q0 -207 -94 -325t-271 -118q-98 0 -209 58l53 137q50 -22 82 -28.5t70 -6.5q92 0 144 75t52 198v1052h173v-833h253q11 0 11 -8v-142q0 -10 -11 -10h-253zM313 -845q-53 0 -84 32t-31 91t30.5 91t84.5 32q55 0 85 -33.5t30 -89.5t-30 -89.5t-85 -33.5z" />
<glyph unicode="&#x695;" horiz-adv-x="735" d="M492 0v-49q0 -207 -94 -325t-271 -118q-98 0 -209 58l53 137q50 -22 82 -28.5t70 -6.5q92 0 144 75t52 198v1052h173v-833h253q11 0 11 -8v-142q0 -10 -11 -10h-253zM580 -652l-225 -408h-127l-228 408h160l129 -264l133 264h158z" />
<glyph unicode="&#x696;" horiz-adv-x="735" d="M492 0v-49q0 -207 -94 -325t-271 -118q-98 0 -209 58l53 137q50 -22 82 -28.5t70 -6.5q92 0 144 75t52 198v1052h173v-833h253q11 0 11 -8v-142q0 -10 -11 -10h-253zM313 -845q-53 0 -84 32t-31 91t30.5 91t84.5 32q55 0 85 -33.5t30 -89.5t-30 -89.5t-85 -33.5zM156 0 q-53 0 -84 32t-31 91t30.5 91t84.5 32q55 0 85 -33.5t30 -89.5t-30 -89.5t-85 -33.5z" />
<glyph unicode="&#x697;" horiz-adv-x="735" d="M492 0v-49q0 -207 -94 -325t-271 -118q-98 0 -209 58l53 137q50 -22 82 -28.5t70 -6.5q92 0 144 75t52 198v1052h173v-833h253q11 0 11 -8v-142q0 -10 -11 -10h-253zM260 1188q-48 0 -81.5 29t-33.5 94t33.5 94t81.5 29q52 0 83 -31.5t31 -91.5q0 -59 -30.5 -91 t-83.5 -32zM614 1188q-53 0 -84 32t-31 91t30.5 91t84.5 32q55 0 85 -33.5t30 -89.5t-30 -89.5t-85 -33.5z" />
<glyph unicode="&#x699;" horiz-adv-x="735" d="M492 0v-49q0 -207 -94 -325t-271 -118q-98 0 -209 58l53 137q50 -22 82 -28.5t70 -6.5q92 0 144 75t52 198v1052h173v-833h253q11 0 11 -8v-142q0 -10 -11 -10h-253zM280 1195q-49 0 -76.5 28t-27.5 82q0 58 30.5 84.5t73.5 26.5q42 0 72.5 -26t30.5 -85 q0 -53 -27.5 -81.5t-75.5 -28.5zM598 1195q-44 0 -73.5 25.5t-29.5 84.5t29.5 85t73.5 26q47 0 75.5 -29.5t28.5 -81.5t-28 -81t-76 -29zM280 1537q-49 0 -76.5 28t-27.5 82q0 58 30.5 84.5t73.5 26.5q42 0 72.5 -26t30.5 -85q0 -53 -27.5 -81.5t-75.5 -28.5zM598 1537 q-44 0 -73.5 25.5t-29.5 84.5t29.5 85t73.5 26q47 0 75.5 -29.5t28.5 -81.5t-28 -81t-76 -29z" />
<glyph unicode="&#x69a;" horiz-adv-x="1798" d="M1325 0q-92 0 -169.5 30.5t-160.5 112.5q-45 -63 -120 -103t-179 -40h-706q-10 0 -10 10v142q0 8 10 8h293v674h174v-674h221q99 0 154 65.5t55 171.5v437h174v-492l-2 -23q51 -88 111.5 -123.5t154.5 -35.5h125v833h174v-993h-299zM977 1188q-53 0 -84 32t-31 91 t30.5 91t84.5 32q55 0 85 -33.5t30 -89.5t-30 -89.5t-85 -33.5zM969 -410q-53 0 -84 32t-31 91t30.5 91t84.5 32q55 0 85 -33.5t30 -89.5t-30 -89.5t-85 -33.5z" />
<glyph unicode="&#x69a;" horiz-adv-x="1888" d="M1325 0q-92 0 -169.5 30.5t-160.5 112.5q-45 -63 -120 -103t-179 -40h-706q-10 0 -10 10v142q0 8 10 8h293v674h174v-674h221q99 0 154 65.5t55 171.5v437h174v-492l-2 -23q51 -88 111.5 -123.5t154.5 -35.5h125v833h174v-833h274q11 0 11 -8v-142q0 -10 -11 -10h-573z M987 1188q-53 0 -84 32t-31 91t30.5 91t84.5 32q55 0 85 -33.5t30 -89.5t-30 -89.5t-85 -33.5zM979 -410q-53 0 -84 32t-31 91t30.5 91t84.5 32q55 0 85 -33.5t30 -89.5t-30 -89.5t-85 -33.5z" />
<glyph unicode="&#x69a;" horiz-adv-x="2634" d="M2071 0q-92 0 -169.5 30.5t-160.5 110.5q-47 -63 -122 -102t-177 -39h-240q0 -242 -123 -367t-387 -125h-147q-190 0 -301 140t-111 385q0 126 22 255.5t62 227.5h170q-70 -177 -70 -483q0 -175 70 -270t197 -95h100q178 0 261 81t83 245v840h174v-674h221q99 0 154 65.5 t55 171.5v437h174v-492l-2 -23q51 -89 113 -124t154 -35h124v833h175v-833h274q10 0 10 -8v-142q0 -10 -10 -10h-573zM1708 -410q-53 0 -84 32t-31 91t30.5 91t84.5 32q55 0 85 -33.5t30 -89.5t-30 -89.5t-85 -33.5zM1716 1188q-53 0 -84 32t-31 91t30.5 91t84.5 32 q55 0 85 -33.5t30 -89.5t-30 -89.5t-85 -33.5z" />
<glyph unicode="&#x69b;" horiz-adv-x="1798" d="M1325 0q-92 0 -169.5 30.5t-160.5 112.5q-45 -63 -120 -103t-179 -40h-706q-10 0 -10 10v142q0 8 10 8h293v674h174v-674h221q99 0 154 65.5t55 171.5v437h174v-492l-2 -23q51 -88 111.5 -123.5t154.5 -35.5h125v833h174v-993h-299zM969 -688q-46 0 -76 26.5t-30 86.5 q0 58 30 85t76 27q43 0 74.5 -27t31.5 -85q0 -60 -31.5 -86.5t-74.5 -26.5zM793 -438q-48 0 -81.5 29t-33.5 94q0 64 33.5 93t81.5 29q54 0 84.5 -33t30.5 -89t-30 -89.5t-85 -33.5zM1147 -438q-53 0 -84 32t-31 91q0 58 31 90t84 32q54 0 84.5 -33t30.5 -89t-30 -89.5 t-85 -33.5z" />
<glyph unicode="&#x69b;" horiz-adv-x="1888" d="M1325 0q-92 0 -169.5 30.5t-160.5 112.5q-45 -63 -120 -103t-179 -40h-706q-10 0 -10 10v142q0 8 10 8h293v674h174v-674h221q99 0 154 65.5t55 171.5v437h174v-492l-2 -23q51 -88 111.5 -123.5t154.5 -35.5h125v833h174v-833h274q11 0 11 -8v-142q0 -10 -11 -10h-573z M969 -688q-46 0 -76 26.5t-30 86.5q0 58 30 85t76 27q43 0 74.5 -27t31.5 -85q0 -60 -31.5 -86.5t-74.5 -26.5zM793 -438q-48 0 -81.5 29t-33.5 94q0 64 33.5 93t81.5 29q54 0 84.5 -33t30.5 -89t-30 -89.5t-85 -33.5zM1147 -438q-53 0 -84 32t-31 91q0 58 31 90t84 32 q54 0 84.5 -33t30.5 -89t-30 -89.5t-85 -33.5z" />
<glyph unicode="&#x69b;" horiz-adv-x="2634" d="M2071 0q-92 0 -169.5 30.5t-160.5 110.5q-47 -63 -122 -102t-177 -39h-240q0 -242 -123 -367t-387 -125h-147q-190 0 -301 140t-111 385q0 126 22 255.5t62 227.5h170q-70 -177 -70 -483q0 -175 70 -270t197 -95h100q178 0 261 81t83 245v840h174v-674h221q99 0 154 65.5 t55 171.5v437h174v-492l-2 -23q51 -89 113 -124t154 -35h124v833h175v-833h274q10 0 10 -8v-142q0 -10 -10 -10h-573zM1706 -688q-46 0 -76 26.5t-30 86.5q0 58 30 85t76 27q43 0 74.5 -27t31.5 -85q0 -60 -31.5 -86.5t-74.5 -26.5zM1530 -438q-48 0 -81.5 29t-33.5 94 q0 64 33.5 93t81.5 29q54 0 84.5 -33t30.5 -89t-30 -89.5t-85 -33.5zM1884 -438q-53 0 -84 32t-31 91q0 58 31 90t84 32q54 0 84.5 -33t30.5 -89t-30 -89.5t-85 -33.5z" />
<glyph unicode="&#x69c;" horiz-adv-x="1798" d="M1325 0q-92 0 -169.5 30.5t-160.5 112.5q-45 -63 -120 -103t-179 -40h-706q-10 0 -10 10v142q0 8 10 8h293v674h174v-674h221q99 0 154 65.5t55 171.5v437h174v-492l-2 -23q51 -88 111.5 -123.5t154.5 -35.5h125v833h174v-993h-299zM969 -688q-46 0 -76 26.5t-30 86.5 q0 58 30 85t76 27q43 0 74.5 -27t31.5 -85q0 -60 -31.5 -86.5t-74.5 -26.5zM793 -438q-48 0 -81.5 29t-33.5 94q0 64 33.5 93t81.5 29q54 0 84.5 -33t30.5 -89t-30 -89.5t-85 -33.5zM1147 -438q-53 0 -84 32t-31 91q0 58 31 90t84 32q54 0 84.5 -33t30.5 -89t-30 -89.5 t-85 -33.5zM958 1464q-46 0 -76 26.5t-30 86.5q0 59 30 86t76 27q43 0 74.5 -27.5t31.5 -85.5q0 -60 -31.5 -86.5t-74.5 -26.5zM782 1188q-48 0 -81.5 29t-33.5 94t33.5 94t81.5 29q55 0 85 -33.5t30 -89.5t-30 -89.5t-85 -33.5zM1136 1188q-53 0 -84 32t-31 91t30.5 91 t84.5 32q55 0 85 -33.5t30 -89.5t-30 -89.5t-85 -33.5z" />
<glyph unicode="&#x69c;" horiz-adv-x="1888" d="M1325 0q-92 0 -169.5 30.5t-160.5 112.5q-45 -63 -120 -103t-179 -40h-706q-10 0 -10 10v142q0 8 10 8h293v674h174v-674h221q99 0 154 65.5t55 171.5v437h174v-492l-2 -23q51 -88 111.5 -123.5t154.5 -35.5h125v833h174v-833h274q11 0 11 -8v-142q0 -10 -11 -10h-573z M969 -688q-46 0 -76 26.5t-30 86.5q0 58 30 85t76 27q43 0 74.5 -27t31.5 -85q0 -60 -31.5 -86.5t-74.5 -26.5zM793 -438q-48 0 -81.5 29t-33.5 94q0 64 33.5 93t81.5 29q54 0 84.5 -33t30.5 -89t-30 -89.5t-85 -33.5zM1147 -438q-53 0 -84 32t-31 91q0 58 31 90t84 32 q54 0 84.5 -33t30.5 -89t-30 -89.5t-85 -33.5zM958 1464q-46 0 -76 26.5t-30 86.5q0 59 30 86t76 27q43 0 74.5 -27.5t31.5 -85.5q0 -60 -31.5 -86.5t-74.5 -26.5zM782 1188q-48 0 -81.5 29t-33.5 94t33.5 94t81.5 29q55 0 85 -33.5t30 -89.5t-30 -89.5t-85 -33.5z M1136 1188q-53 0 -84 32t-31 91t30.5 91t84.5 32q55 0 85 -33.5t30 -89.5t-30 -89.5t-85 -33.5z" />
<glyph unicode="&#x69c;" horiz-adv-x="2634" d="M2071 0q-92 0 -169.5 30.5t-160.5 110.5q-47 -63 -122 -102t-177 -39h-240q0 -242 -123 -367t-387 -125h-147q-190 0 -301 140t-111 385q0 126 22 255.5t62 227.5h170q-70 -177 -70 -483q0 -175 70 -270t197 -95h100q178 0 261 81t83 245v840h174v-674h221q99 0 154 65.5 t55 171.5v437h174v-492l-2 -23q51 -89 113 -124t154 -35h124v833h175v-833h274q10 0 10 -8v-142q0 -10 -10 -10h-573zM1706 -688q-46 0 -76 26.5t-30 86.5q0 58 30 85t76 27q43 0 74.5 -27t31.5 -85q0 -60 -31.5 -86.5t-74.5 -26.5zM1530 -438q-48 0 -81.5 29t-33.5 94 q0 64 33.5 93t81.5 29q54 0 84.5 -33t30.5 -89t-30 -89.5t-85 -33.5zM1884 -438q-53 0 -84 32t-31 91q0 58 31 90t84 32q54 0 84.5 -33t30.5 -89t-30 -89.5t-85 -33.5zM1726 1464q-46 0 -76 26.5t-30 86.5q0 59 30 86t76 27q43 0 74.5 -27.5t31.5 -85.5q0 -60 -31.5 -86.5 t-74.5 -26.5zM1550 1188q-48 0 -81.5 29t-33.5 94t33.5 94t81.5 29q55 0 85 -33.5t30 -89.5t-30 -89.5t-85 -33.5zM1904 1188q-53 0 -84 32t-31 91t30.5 91t84.5 32q55 0 85 -33.5t30 -89.5t-30 -89.5t-85 -33.5z" />
<glyph unicode="&#x69d;" horiz-adv-x="1604" d="M-10 0q-10 0 -10 10v142q0 8 10 8h250v772h174v-379q96 229 241 345t326 116q232 0 350.5 -126t118.5 -394v-494h-1460zM1276 160v325q0 189 -82.5 278t-249.5 89q-315 0 -530 -524v-168h862zM658 -410q-48 0 -81.5 29t-33.5 94t33.5 94t81.5 29q52 0 83 -31.5t31 -91.5 q0 -59 -30.5 -91t-83.5 -32zM1012 -410q-53 0 -84 32t-31 91t30.5 91t84.5 32q55 0 85 -33.5t30 -89.5t-30 -89.5t-85 -33.5z" />
<glyph unicode="&#x69d;" horiz-adv-x="1710" d="M-10 0q-10 0 -10 10v142q0 8 10 8h250v772h174v-379q96 229 241 345t326 116q232 0 350.5 -126t118.5 -394v-334h270q11 0 11 -8v-142q0 -10 -11 -10h-1730zM1276 160v325q0 189 -82.5 278t-249.5 89q-315 0 -530 -524v-168h862zM658 -410q-48 0 -81.5 29t-33.5 94 t33.5 94t81.5 29q52 0 83 -31.5t31 -91.5q0 -59 -30.5 -91t-83.5 -32zM1012 -410q-53 0 -84 32t-31 91t30.5 91t84.5 32q55 0 85 -33.5t30 -89.5t-30 -89.5t-85 -33.5z" />
<glyph unicode="&#x69d;" horiz-adv-x="2503" d="M1202 0q0 -248 -123 -370t-387 -122h-147q-190 0 -301 140t-111 385q0 126 22 255.5t62 227.5h170q-70 -177 -70 -483q0 -175 70 -270t197 -95h100q178 0 261 81t83 245v999h174v-440q96 229 241 345t326 116q232 0 350.5 -126t118.5 -394v-334h275q10 0 10 -8v-142 q0 -10 -10 -10h-1311zM2064 160v325q0 189 -82 278t-249 89q-317 0 -531 -520v-172h862zM1495 -410q-48 0 -81.5 29t-33.5 94t33.5 94t81.5 29q52 0 83 -31.5t31 -91.5q0 -59 -30.5 -91t-83.5 -32zM1849 -410q-53 0 -84 32t-31 91t30.5 91t84.5 32q55 0 85 -33.5t30 -89.5 t-30 -89.5t-85 -33.5z" />
<glyph unicode="&#x69e;" horiz-adv-x="1604" d="M-10 0q-10 0 -10 10v142q0 8 10 8h250v772h174v-379q96 229 241 345t326 116q232 0 350.5 -126t118.5 -394v-494h-1460zM1276 160v325q0 189 -82.5 278t-249.5 89q-315 0 -530 -524v-168h862zM1024 1464q-46 0 -76 26.5t-30 86.5q0 59 30 86t76 27q43 0 74.5 -27.5 t31.5 -85.5q0 -60 -31.5 -86.5t-74.5 -26.5zM848 1188q-48 0 -81.5 29t-33.5 94t33.5 94t81.5 29q55 0 85 -33.5t30 -89.5t-30 -89.5t-85 -33.5zM1202 1188q-53 0 -84 32t-31 91t30.5 91t84.5 32q55 0 85 -33.5t30 -89.5t-30 -89.5t-85 -33.5z" />
<glyph unicode="&#x69e;" horiz-adv-x="1710" d="M-10 0q-10 0 -10 10v142q0 8 10 8h250v772h174v-379q96 229 241 345t326 116q232 0 350.5 -126t118.5 -394v-334h270q11 0 11 -8v-142q0 -10 -11 -10h-1730zM1276 160v325q0 189 -82.5 278t-249.5 89q-315 0 -530 -524v-168h862zM1024 1464q-46 0 -76 26.5t-30 86.5 q0 59 30 86t76 27q43 0 74.5 -27.5t31.5 -85.5q0 -60 -31.5 -86.5t-74.5 -26.5zM848 1188q-48 0 -81.5 29t-33.5 94t33.5 94t81.5 29q55 0 85 -33.5t30 -89.5t-30 -89.5t-85 -33.5zM1202 1188q-53 0 -84 32t-31 91t30.5 91t84.5 32q55 0 85 -33.5t30 -89.5t-30 -89.5 t-85 -33.5z" />
<glyph unicode="&#x69e;" horiz-adv-x="2503" d="M1202 0q0 -248 -123 -370t-387 -122h-147q-190 0 -301 140t-111 385q0 126 22 255.5t62 227.5h170q-70 -177 -70 -483q0 -175 70 -270t197 -95h100q178 0 261 81t83 245v999h174v-440q96 229 241 345t326 116q232 0 350.5 -126t118.5 -394v-334h275q10 0 10 -8v-142 q0 -10 -10 -10h-1311zM2064 160v325q0 189 -82 278t-249 89q-317 0 -531 -520v-172h862zM1726 1464q-46 0 -76 26.5t-30 86.5q0 59 30 86t76 27q43 0 74.5 -27.5t31.5 -85.5q0 -60 -31.5 -86.5t-74.5 -26.5zM1550 1188q-48 0 -81.5 29t-33.5 94t33.5 94t81.5 29 q55 0 85 -33.5t30 -89.5t-30 -89.5t-85 -33.5zM1904 1188q-53 0 -84 32t-31 91t30.5 91t84.5 32q55 0 85 -33.5t30 -89.5t-30 -89.5t-85 -33.5z" />
<glyph unicode="&#x69f;" horiz-adv-x="1583" d="M-10 0q-10 0 -10 10v142q0 8 10 8h250v1396h174v-1003q96 229 241 345t326 116q232 0 350.5 -126t118.5 -394v-494h-1460zM1276 160v325q0 189 -82.5 278t-249.5 89q-315 0 -530 -524v-168h862zM970 1464q-46 0 -76 26.5t-30 86.5q0 59 30 86t76 27q43 0 74.5 -27.5 t31.5 -85.5q0 -60 -31.5 -86.5t-74.5 -26.5zM794 1188q-48 0 -81.5 29t-33.5 94t33.5 94t81.5 29q55 0 85 -33.5t30 -89.5t-30 -89.5t-85 -33.5zM1148 1188q-53 0 -84 32t-31 91t30.5 91t84.5 32q55 0 85 -33.5t30 -89.5t-30 -89.5t-85 -33.5z" />
<glyph unicode="&#x69f;" horiz-adv-x="1710" d="M-10 0q-10 0 -10 10v142q0 8 10 8h250v1396h174v-1003q96 229 241 345t326 116q232 0 350.5 -126t118.5 -394v-334h270q11 0 11 -8v-142q0 -10 -11 -10h-1730zM1276 160v325q0 189 -82.5 278t-249.5 89q-315 0 -530 -524v-168h862zM970 1464q-46 0 -76 26.5t-30 86.5 q0 59 30 86t76 27q43 0 74.5 -27.5t31.5 -85.5q0 -60 -31.5 -86.5t-74.5 -26.5zM794 1188q-48 0 -81.5 29t-33.5 94t33.5 94t81.5 29q55 0 85 -33.5t30 -89.5t-30 -89.5t-85 -33.5zM1148 1188q-53 0 -84 32t-31 91t30.5 91t84.5 32q55 0 85 -33.5t30 -89.5t-30 -89.5 t-85 -33.5z" />
<glyph unicode="&#x69f;" horiz-adv-x="1731" d="M61 160h199v1396h174v-1003q96 229 241 345t326 116q232 0 350.5 -126t118.5 -394v-334h271q10 0 10 -8v-142q0 -10 -10 -10h-1680v160zM1296 160v325q0 189 -82 278t-249 89q-155 0 -289 -130.5t-242 -393.5v-168h862zM1024 1464q-46 0 -76 26.5t-30 86.5q0 59 30 86 t76 27q43 0 74.5 -27.5t31.5 -85.5q0 -60 -31.5 -86.5t-74.5 -26.5zM848 1188q-48 0 -81.5 29t-33.5 94t33.5 94t81.5 29q55 0 85 -33.5t30 -89.5t-30 -89.5t-85 -33.5zM1202 1188q-53 0 -84 32t-31 91t30.5 91t84.5 32q55 0 85 -33.5t30 -89.5t-30 -89.5t-85 -33.5z" />
<glyph unicode="&#x6a0;" horiz-adv-x="1055" d="M-10 0q-10 0 -10 10v142q0 8 10 8h315q-65 55 -105 151t-40 213q0 231 132.5 360.5t354.5 129.5q88 0 162.5 -17.5t122.5 -42.5l-55 -153q-127 53 -240 53q-291 0 -291 -338q0 -159 69.5 -257.5t182.5 -98.5h365v-160h-973zM645 1464q-46 0 -76 26.5t-30 86.5q0 59 30 86 t76 27q43 0 74.5 -27.5t31.5 -85.5q0 -60 -31.5 -86.5t-74.5 -26.5zM469 1188q-48 0 -81.5 29t-33.5 94t33.5 94t81.5 29q55 0 85 -33.5t30 -89.5t-30 -89.5t-85 -33.5zM823 1188q-53 0 -84 32t-31 91t30.5 91t84.5 32q55 0 85 -33.5t30 -89.5t-30 -89.5t-85 -33.5z" />
<glyph unicode="&#x6a0;" horiz-adv-x="1217" d="M987 0q-86 0 -185 25.5t-194 76.5q-180 -102 -381 -102h-237q-10 0 -10 10v142q0 8 10 8h235q147 0 244 41q-79 57 -161.5 164.5t-140 232t-75.5 236.5q112 105 252.5 165t286.5 60q129 0 260 -41t229 -109q0 -212 -98 -400t-270 -306q114 -43 227 -43h248q10 0 10 -8 v-142q0 -10 -10 -10h-240zM610 293q158 107 235 235t87 295q-143 76 -295 76q-174 0 -348 -119q31 -140 116 -268t205 -219zM604 1464q-46 0 -76 26.5t-30 86.5q0 59 30 86t76 27q43 0 74.5 -27.5t31.5 -85.5q0 -60 -31.5 -86.5t-74.5 -26.5zM428 1188q-48 0 -81.5 29 t-33.5 94t33.5 94t81.5 29q55 0 85 -33.5t30 -89.5t-30 -89.5t-85 -33.5zM782 1188q-53 0 -84 32t-31 91t30.5 91t84.5 32q55 0 85 -33.5t30 -89.5t-30 -89.5t-85 -33.5z" />
<glyph unicode="&#x6a0;" horiz-adv-x="1257" d="M193 -262q0 128 74 241.5t237 225.5q-145 139 -247 310.5t-124 318.5q112 105 252.5 165t286.5 60q129 0 260 -41t229 -109q-4 -197 -99 -379.5t-274 -322.5q111 -47 232 -47h248q10 0 10 -8v-142q0 -10 -10 -10h-240q-78 0 -188 31t-197 78q-146 -93 -205 -177.5 t-59 -177.5q0 -131 76 -192.5t237 -61.5q81 0 155 10.5t146 22.5l23 -141q-148 -31 -228 -40t-170 -9q-198 0 -311.5 104t-113.5 291zM330 780q25 -118 110 -250t205 -231q157 108 236.5 235t91.5 289q-143 76 -295 76q-174 0 -348 -119zM645 1464q-46 0 -76 26.5t-30 86.5 q0 59 30 86t76 27q43 0 74.5 -27.5t31.5 -85.5q0 -60 -31.5 -86.5t-74.5 -26.5zM469 1188q-48 0 -81.5 29t-33.5 94t33.5 94t81.5 29q55 0 85 -33.5t30 -89.5t-30 -89.5t-85 -33.5zM823 1188q-53 0 -84 32t-31 91t30.5 91t84.5 32q55 0 85 -33.5t30 -89.5t-30 -89.5 t-85 -33.5z" />
<glyph unicode="&#x6a1;" horiz-adv-x="2114" d="M1724 160v674h-88q-182 0 -283.5 -95t-101.5 -268q0 -311 281 -311h192zM516 0q-177 0 -280 106.5t-103 290.5q0 68 14.5 157t36.5 151h164q-31 -148 -31 -293q0 -112 53 -182t140 -70h666q-48 52 -77.5 137t-29.5 172q0 240 150.5 382t410.5 142h268v-833h226 q10 0 10 -8v-142q0 -10 -10 -10h-1608z" />
<glyph unicode="&#x6a2;" horiz-adv-x="1198" d="M850 160v674h-88q-182 0 -283.5 -95t-101.5 -268q0 -311 280 -311h193zM-10 0q-10 0 -10 10v142q0 8 10 8h311q-52 59 -79 143t-27 166q0 240 150.5 382t410.5 142h268v-993h-1034zM657 -410q-53 0 -84 32t-31 91t30.5 91t84.5 32q55 0 85 -33.5t30 -89.5t-30 -89.5 t-85 -33.5z" />
<glyph unicode="&#x6a2;" horiz-adv-x="1231" d="M850 160v674h-88q-183 0 -284 -96.5t-101 -268.5q0 -309 280 -309h193zM-10 0q-10 0 -10 10v142q0 8 10 8h311q-52 59 -79 143t-27 166q0 244 151.5 384t409.5 140h268v-833h217q6 0 9 -5l1 -5v-142q0 -8 -10 -8h-1251zM657 -410q-53 0 -84 32t-31 91t30.5 91t84.5 32 q55 0 85 -33.5t30 -89.5t-30 -89.5t-85 -33.5z" />
<glyph unicode="&#x6a2;" horiz-adv-x="2114" d="M1724 160v674h-88q-182 0 -283.5 -95t-101.5 -268q0 -311 281 -311h192zM516 0q-177 0 -280 106.5t-103 290.5q0 68 14.5 157t36.5 151h164q-31 -148 -31 -293q0 -112 53 -182t140 -70h666q-48 52 -77.5 137t-29.5 172q0 240 150.5 382t410.5 142h268v-833h226 q10 0 10 -8v-142q0 -10 -10 -10h-1608zM1536 -410q-53 0 -84 32t-31 91t30.5 91t84.5 32q55 0 85 -33.5t30 -89.5t-30 -89.5t-85 -33.5z" />
<glyph unicode="&#x6a3;" horiz-adv-x="1198" d="M850 160v674h-88q-182 0 -283.5 -95t-101.5 -268q0 -311 280 -311h193zM-10 0q-10 0 -10 10v142q0 8 10 8h311q-52 59 -79 143t-27 166q0 240 150.5 382t410.5 142h268v-993h-1034zM635 1188q-53 0 -84 32t-31 91t30.5 91t84.5 32q55 0 85 -33.5t30 -89.5t-30 -89.5 t-85 -33.5zM657 -410q-53 0 -84 32t-31 91t30.5 91t84.5 32q55 0 85 -33.5t30 -89.5t-30 -89.5t-85 -33.5z" />
<glyph unicode="&#x6a3;" horiz-adv-x="1231" d="M850 160v674h-88q-183 0 -284 -96.5t-101 -268.5q0 -309 280 -309h193zM-10 0q-10 0 -10 10v142q0 8 10 8h311q-52 59 -79 143t-27 166q0 244 151.5 384t409.5 140h268v-833h217q6 0 9 -5l1 -5v-142q0 -8 -10 -8h-1251zM653 1188q-53 0 -84 32t-31 91t30.5 91t84.5 32 q55 0 85 -33.5t30 -89.5t-30 -89.5t-85 -33.5zM657 -410q-53 0 -84 32t-31 91t30.5 91t84.5 32q55 0 85 -33.5t30 -89.5t-30 -89.5t-85 -33.5z" />
<glyph unicode="&#x6a3;" horiz-adv-x="2114" d="M1724 160v674h-88q-182 0 -283.5 -95t-101.5 -268q0 -311 281 -311h192zM516 0q-177 0 -280 106.5t-103 290.5q0 68 14.5 157t36.5 151h164q-31 -148 -31 -293q0 -112 53 -182t140 -70h666q-48 52 -77.5 137t-29.5 172q0 240 150.5 382t410.5 142h268v-833h226 q10 0 10 -8v-142q0 -10 -10 -10h-1608zM1511 1188q-53 0 -84 32t-31 91t30.5 91t84.5 32q55 0 85 -33.5t30 -89.5t-30 -89.5t-85 -33.5zM1536 -410q-53 0 -84 32t-31 91t30.5 91t84.5 32q55 0 85 -33.5t30 -89.5t-30 -89.5t-85 -33.5z" />
<glyph unicode="&#x6a4;" horiz-adv-x="1198" arabic-form="initial" d="M850 160v674h-88q-182 0 -283.5 -95t-101.5 -268q0 -311 280 -311h193zM-10 0q-10 0 -10 10v142q0 8 10 8h311q-52 59 -79 143t-27 166q0 240 150.5 382t410.5 142h268v-993h-1034zM655 1464q-46 0 -76 26.5t-30 86.5q0 59 30 86t76 27q43 0 74.5 -27.5t31.5 -85.5 q0 -60 -31.5 -86.5t-74.5 -26.5zM479 1188q-48 0 -81.5 29t-33.5 94t33.5 94t81.5 29q55 0 85 -33.5t30 -89.5t-30 -89.5t-85 -33.5zM833 1188q-53 0 -84 32t-31 91t30.5 91t84.5 32q55 0 85 -33.5t30 -89.5t-30 -89.5t-85 -33.5z" />
<glyph unicode="&#x6a4;" horiz-adv-x="1231" arabic-form="medial" d="M850 160v674h-88q-183 0 -284 -96.5t-101 -268.5q0 -309 280 -309h193zM-10 0q-10 0 -10 10v142q0 8 10 8h311q-52 59 -79 143t-27 166q0 244 151.5 384t409.5 140h268v-833h217q6 0 9 -5l1 -5v-142q0 -8 -10 -8h-1251zM655 1464q-46 0 -76 26.5t-30 86.5q0 59 30 86 t76 27q43 0 74.5 -27.5t31.5 -85.5q0 -60 -31.5 -86.5t-74.5 -26.5zM479 1188q-48 0 -81.5 29t-33.5 94t33.5 94t81.5 29q55 0 85 -33.5t30 -89.5t-30 -89.5t-85 -33.5zM833 1188q-53 0 -84 32t-31 91t30.5 91t84.5 32q55 0 85 -33.5t30 -89.5t-30 -89.5t-85 -33.5z" />
<glyph unicode="&#x6a4;" horiz-adv-x="2114" arabic-form="final" d="M1724 160v674h-88q-182 0 -283.5 -95t-101.5 -268q0 -311 281 -311h192zM516 0q-177 0 -280 106.5t-103 290.5q0 68 14.5 157t36.5 151h164q-31 -148 -31 -293q0 -112 53 -182t140 -70h666q-48 52 -77.5 137t-29.5 172q0 240 150.5 382t410.5 142h268v-833h226 q10 0 10 -8v-142q0 -10 -10 -10h-1608zM1524 1464q-46 0 -76 26.5t-30 86.5q0 59 30 86t76 27q43 0 74.5 -27.5t31.5 -85.5q0 -60 -31.5 -86.5t-74.5 -26.5zM1348 1188q-48 0 -81.5 29t-33.5 94t33.5 94t81.5 29q55 0 85 -33.5t30 -89.5t-30 -89.5t-85 -33.5zM1702 1188 q-53 0 -84 32t-31 91t30.5 91t84.5 32q55 0 85 -33.5t30 -89.5t-30 -89.5t-85 -33.5z" />
<glyph unicode="&#x6a5;" horiz-adv-x="1198" d="M850 160v674h-88q-182 0 -283.5 -95t-101.5 -268q0 -311 280 -311h193zM-10 0q-10 0 -10 10v142q0 8 10 8h311q-52 59 -79 143t-27 166q0 240 150.5 382t410.5 142h268v-993h-1034zM639 -688q-46 0 -76 26.5t-30 86.5q0 58 30 85t76 27q43 0 74.5 -27t31.5 -85 q0 -60 -31.5 -86.5t-74.5 -26.5zM463 -438q-48 0 -81.5 29t-33.5 94q0 64 33.5 93t81.5 29q54 0 84.5 -33t30.5 -89t-30 -89.5t-85 -33.5zM817 -438q-53 0 -84 32t-31 91q0 58 31 90t84 32q54 0 84.5 -33t30.5 -89t-30 -89.5t-85 -33.5z" />
<glyph unicode="&#x6a5;" horiz-adv-x="1231" d="M850 160v674h-88q-183 0 -284 -96.5t-101 -268.5q0 -309 280 -309h193zM-10 0q-10 0 -10 10v142q0 8 10 8h311q-52 59 -79 143t-27 166q0 244 151.5 384t409.5 140h268v-833h217q6 0 9 -5l1 -5v-142q0 -8 -10 -8h-1251zM639 -688q-46 0 -76 26.5t-30 86.5q0 58 30 85 t76 27q43 0 74.5 -27t31.5 -85q0 -60 -31.5 -86.5t-74.5 -26.5zM463 -438q-48 0 -81.5 29t-33.5 94q0 64 33.5 93t81.5 29q54 0 84.5 -33t30.5 -89t-30 -89.5t-85 -33.5zM817 -438q-53 0 -84 32t-31 91q0 58 31 90t84 32q54 0 84.5 -33t30.5 -89t-30 -89.5t-85 -33.5z" />
<glyph unicode="&#x6a5;" horiz-adv-x="2114" d="M1724 160v674h-88q-182 0 -283.5 -95t-101.5 -268q0 -311 281 -311h192zM516 0q-177 0 -280 106.5t-103 290.5q0 68 14.5 157t36.5 151h164q-31 -148 -31 -293q0 -112 53 -182t140 -70h666q-48 52 -77.5 137t-29.5 172q0 240 150.5 382t410.5 142h268v-833h226 q10 0 10 -8v-142q0 -10 -10 -10h-1608zM1497 -688q-46 0 -76 26.5t-30 86.5q0 58 30 85t76 27q43 0 74.5 -27t31.5 -85q0 -60 -31.5 -86.5t-74.5 -26.5zM1321 -438q-48 0 -81.5 29t-33.5 94q0 64 33.5 93t81.5 29q54 0 84.5 -33t30.5 -89t-30 -89.5t-85 -33.5zM1675 -438 q-53 0 -84 32t-31 91q0 58 31 90t84 32q54 0 84.5 -33t30.5 -89t-30 -89.5t-85 -33.5z" />
<glyph unicode="&#x6a6;" horiz-adv-x="1198" arabic-form="initial" d="M850 160v674h-88q-182 0 -283.5 -95t-101.5 -268q0 -311 280 -311h193zM-10 0q-10 0 -10 10v142q0 8 10 8h311q-52 59 -79 143t-27 166q0 240 150.5 382t410.5 142h268v-993h-1034zM489 1219q-49 0 -76.5 28t-27.5 82q0 58 30.5 84.5t73.5 26.5q42 0 72.5 -26t30.5 -85 q0 -53 -27.5 -81.5t-75.5 -28.5zM807 1219q-44 0 -73.5 25.5t-29.5 84.5t29.5 85t73.5 26q47 0 75.5 -29.5t28.5 -81.5t-28 -81t-76 -29zM489 1561q-49 0 -76.5 28t-27.5 82q0 58 30.5 84.5t73.5 26.5q42 0 72.5 -26t30.5 -85q0 -53 -27.5 -81.5t-75.5 -28.5zM807 1561 q-44 0 -73.5 25.5t-29.5 84.5t29.5 85t73.5 26q47 0 75.5 -29.5t28.5 -81.5t-28 -81t-76 -29z" />
<glyph unicode="&#x6a6;" horiz-adv-x="1231" arabic-form="medial" d="M850 160v674h-88q-183 0 -284 -96.5t-101 -268.5q0 -309 280 -309h193zM-10 0q-10 0 -10 10v142q0 8 10 8h311q-52 59 -79 143t-27 166q0 244 151.5 384t409.5 140h268v-833h217q6 0 9 -5l1 -5v-142q0 -8 -10 -8h-1251zM489 1219q-49 0 -76.5 28t-27.5 82q0 58 30.5 84.5 t73.5 26.5q42 0 72.5 -26t30.5 -85q0 -53 -27.5 -81.5t-75.5 -28.5zM807 1219q-44 0 -73.5 25.5t-29.5 84.5t29.5 85t73.5 26q47 0 75.5 -29.5t28.5 -81.5t-28 -81t-76 -29zM489 1561q-49 0 -76.5 28t-27.5 82q0 58 30.5 84.5t73.5 26.5q42 0 72.5 -26t30.5 -85 q0 -53 -27.5 -81.5t-75.5 -28.5zM807 1561q-44 0 -73.5 25.5t-29.5 84.5t29.5 85t73.5 26q47 0 75.5 -29.5t28.5 -81.5t-28 -81t-76 -29z" />
<glyph unicode="&#x6a6;" horiz-adv-x="2114" arabic-form="final" d="M1724 160v674h-88q-182 0 -283.5 -95t-101.5 -268q0 -311 281 -311h192zM516 0q-177 0 -280 106.5t-103 290.5q0 68 14.5 157t36.5 151h164q-31 -148 -31 -293q0 -112 53 -182t140 -70h666q-48 52 -77.5 137t-29.5 172q0 240 150.5 382t410.5 142h268v-833h226 q10 0 10 -8v-142q0 -10 -10 -10h-1608zM1327 1219q-49 0 -76.5 28t-27.5 82q0 58 30.5 84.5t73.5 26.5q42 0 72.5 -26t30.5 -85q0 -53 -27.5 -81.5t-75.5 -28.5zM1645 1219q-44 0 -73.5 25.5t-29.5 84.5t29.5 85t73.5 26q47 0 75.5 -29.5t28.5 -81.5t-28 -81t-76 -29z M1327 1561q-49 0 -76.5 28t-27.5 82q0 58 30.5 84.5t73.5 26.5q42 0 72.5 -26t30.5 -85q0 -53 -27.5 -81.5t-75.5 -28.5zM1645 1561q-44 0 -73.5 25.5t-29.5 84.5t29.5 85t73.5 26q47 0 75.5 -29.5t28.5 -81.5t-28 -81t-76 -29z" />
<glyph unicode="&#x6a7;" horiz-adv-x="1835" d="M1446 160v674h-88q-182 0 -283.5 -96t-101.5 -269q0 -160 69.5 -234.5t210.5 -74.5h193zM1845 160q10 0 10 -8v-142q0 -10 -10 -10h-225v-12q0 -480 -518 -480h-484q-225 0 -355 133t-130 361q0 261 84 483h170q-70 -196 -70 -471q0 -166 88.5 -256t249.5 -90h414 q200 0 288.5 77.5t88.5 240.5v14h-189q-227 0 -346.5 120t-119.5 347q0 243 153 384.5t408 141.5h268v-833h225zM1253 1188q-53 0 -84 32t-31 91t30.5 91t84.5 32q55 0 85 -33.5t30 -89.5t-30 -89.5t-85 -33.5z" />
<glyph unicode="&#x6a8;" horiz-adv-x="1835" d="M1446 160v674h-88q-182 0 -283.5 -96t-101.5 -269q0 -160 69.5 -234.5t210.5 -74.5h193zM1845 160q10 0 10 -8v-142q0 -10 -10 -10h-225v-12q0 -480 -518 -480h-484q-225 0 -355 133t-130 361q0 261 84 483h170q-70 -196 -70 -471q0 -166 88.5 -256t249.5 -90h414 q200 0 288.5 77.5t88.5 240.5v14h-189q-227 0 -346.5 120t-119.5 347q0 243 153 384.5t408 141.5h268v-833h225zM1270 1464q-46 0 -76 26.5t-30 86.5q0 59 30 86t76 27q43 0 74.5 -27.5t31.5 -85.5q0 -60 -31.5 -86.5t-74.5 -26.5zM1094 1188q-48 0 -81.5 29t-33.5 94 t33.5 94t81.5 29q55 0 85 -33.5t30 -89.5t-30 -89.5t-85 -33.5zM1448 1188q-53 0 -84 32t-31 91t30.5 91t84.5 32q55 0 85 -33.5t30 -89.5t-30 -89.5t-85 -33.5z" />
<glyph unicode="&#x6aa;" horiz-adv-x="2077" d="M-20 160h1769v57q0 153 -92 225t-285 72h-1102v168q99 206 304 395t417 271l66 -156q-189 -76 -367 -224t-250 -294h932q269 0 410 -111t141 -315v-248h-1943v160z" />
<glyph unicode="&#x6aa;" horiz-adv-x="2163" d="M-20 160h1769v57q0 153 -92 225t-285 72h-1102v168q99 206 304 395t417 271l66 -156q-189 -76 -367 -224t-250 -294h932q269 0 410 -111t141 -315v-88h250q10 0 10 -8v-142q0 -10 -10 -10h-2193v160z" />
<glyph unicode="&#x6aa;" horiz-adv-x="2392" d="M776 0q-189 0 -406 39.5t-329 89.5l20 92q142 -34 249 -47.5t327 -13.5h1356v57q0 154 -93.5 225.5t-283.5 71.5h-1102v168q100 210 305.5 397t415.5 269l65 -156q-191 -77 -368 -225.5t-248 -292.5h932q269 0 410 -111t141 -315v-88h235q11 0 11 -8v-142q0 -10 -11 -10 h-1626z" />
<glyph unicode="&#x6ab;" horiz-adv-x="1180" d="M707 1051q-92 0 -152.5 47t-71.5 135q-130 -123 -186 -240h178q268 0 409.5 -110t141.5 -316v-567h-1036q-10 0 -10 10v142q0 8 10 8h862v377q0 153 -92 225t-285 72h-348v167q66 138 182 271.5t259.5 238t279.5 156.5l65 -156q-70 -30 -106 -49q59 -23 94 -73t35 -121 q0 -97 -61.5 -157t-167.5 -60zM707 1153q49 0 80.5 29.5t31.5 83.5t-31.5 83t-80.5 29q-50 0 -81.5 -29t-31.5 -83t28.5 -83.5t84.5 -29.5z" />
<glyph unicode="&#x6ab;" horiz-adv-x="1282" d="M707 1051q-92 0 -152.5 47t-71.5 135q-130 -123 -186 -240h178q268 0 409.5 -110t141.5 -316v-407h266q11 0 11 -8v-142q0 -10 -11 -10h-1302q-10 0 -10 10v142q0 8 10 8h862v377q0 153 -92 225t-285 72h-348v167q66 138 182 271.5t259.5 238t279.5 156.5l65 -156 q-70 -30 -106 -49q59 -23 94 -73t35 -121q0 -97 -61.5 -157t-167.5 -60zM707 1153q49 0 80.5 29.5t31.5 83.5t-31.5 83t-80.5 29q-50 0 -81.5 -29t-31.5 -83t28.5 -83.5t84.5 -29.5z" />
<glyph unicode="&#x6ab;" horiz-adv-x="1757" d="M1182 1051q-92 0 -152.5 47t-71.5 135q-131 -127 -186 -240h178q268 0 409.5 -110t141.5 -316v-407h266q11 0 11 -8v-142q0 -10 -11 -10h-1251q-186 0 -284.5 95t-98.5 272q0 52 11 129t30 147h164q-31 -170 -31 -256q0 -106 54.5 -166.5t148.5 -60.5h817v377 q0 153 -92 225t-285 72h-348v167q66 138 182 271.5t259.5 238t279.5 156.5l66 -156q-75 -32 -107 -49q59 -23 94 -73t35 -121q0 -97 -61.5 -157t-167.5 -60zM1182 1153q49 0 80.5 29.5t31.5 83.5t-31.5 83t-80.5 29q-50 0 -81.5 -29t-31.5 -83t28.5 -83.5t84.5 -29.5z" />
<glyph unicode="&#x6ac;" horiz-adv-x="1180" d="M-10 0q-10 0 -10 10v142q0 8 10 8h862v377q0 153 -92 225t-285 72h-348v167q66 138 182 271.5t259.5 238t279.5 156.5l65 -156q-188 -74 -368 -224.5t-248 -293.5h178q268 0 409.5 -110t141.5 -316v-567h-1036zM311 1557q-53 0 -84 32t-31 91t30.5 91t84.5 32 q55 0 85 -33.5t30 -89.5t-30 -89.5t-85 -33.5z" />
<glyph unicode="&#x6ac;" horiz-adv-x="1282" d="M-10 0q-10 0 -10 10v142q0 8 10 8h862v377q0 153 -92 225t-285 72h-348v167q66 138 182 271.5t259.5 238t279.5 156.5l65 -156q-188 -74 -368 -224.5t-248 -293.5h178q268 0 409.5 -110t141.5 -316v-407h266q11 0 11 -8v-142q0 -10 -11 -10h-1302zM311 1557q-53 0 -84 32 t-31 91t30.5 91t84.5 32q55 0 85 -33.5t30 -89.5t-30 -89.5t-85 -33.5z" />
<glyph unicode="&#x6ac;" horiz-adv-x="1681" d="M516 0q-186 0 -284.5 95t-98.5 272q0 136 51 276h154q-31 -146 -31 -262q0 -103 54.5 -162t148.5 -59h735v1396h174v-1396h273q10 0 10 -8v-142q0 -10 -10 -10h-1176zM586 731l96 14q-72 47 -72 129q0 87 57 136t152 49q76 0 135 -31l-30 -92q-43 25 -103 25 q-45 0 -75.5 -25.5t-30.5 -79.5q0 -35 17.5 -59.5t43.5 -36.5q24 5 100 15.5t105 10.5v-100q-17 0 -90 -7.5t-108 -12.5q-177 -25 -197 -29v94zM782 1311q-53 0 -84 32t-31 91t30.5 91t84.5 32q55 0 85 -33.5t30 -89.5t-30 -89.5t-85 -33.5z" />
<glyph unicode="&#x6ad;" horiz-adv-x="1180" arabic-form="initial" d="M-10 0q-10 0 -10 10v142q0 8 10 8h862v377q0 153 -92 225t-285 72h-348v167q66 138 182 271.5t259.5 238t279.5 156.5l65 -156q-188 -74 -368 -224.5t-248 -293.5h178q268 0 409.5 -110t141.5 -316v-567h-1036zM223 1661q-28 0 -55 29t-27 57t24 52t54 24t56 -26.5 t26 -59.5q0 -28 -25 -52t-53 -24zM252 1434q-32 0 -61 30.5t-29 65.5q0 29 24.5 53.5t57.5 24.5t61.5 -30t28.5 -65q0 -29 -27 -54t-55 -25zM440 1593q-32 0 -61 30.5t-29 66.5q0 28 24.5 52.5t57.5 24.5t61.5 -30t28.5 -64q0 -28 -26.5 -54t-55.5 -26z" />
<glyph unicode="&#x6ad;" horiz-adv-x="1282" arabic-form="medial" d="M-10 0q-10 0 -10 10v142q0 8 10 8h862v377q0 153 -92 225t-285 72h-348v167q66 138 182 271.5t259.5 238t279.5 156.5l65 -156q-188 -74 -368 -224.5t-248 -293.5h178q268 0 409.5 -110t141.5 -316v-407h266q11 0 11 -8v-142q0 -10 -11 -10h-1302zM223 1661q-28 0 -55 29 t-27 57t24 52t54 24t56 -26.5t26 -59.5q0 -28 -25 -52t-53 -24zM252 1434q-32 0 -61 30.5t-29 65.5q0 29 24.5 53.5t57.5 24.5t61.5 -30t28.5 -65q0 -29 -27 -54t-55 -25zM440 1593q-32 0 -61 30.5t-29 66.5q0 28 24.5 52.5t57.5 24.5t61.5 -30t28.5 -64q0 -28 -26.5 -54 t-55.5 -26z" />
<glyph unicode="&#x6ad;" horiz-adv-x="1681" arabic-form="final" d="M516 0q-186 0 -284.5 95t-98.5 272q0 136 51 276h154q-31 -146 -31 -262q0 -103 54.5 -162t148.5 -59h735v1396h174v-1396h273q10 0 10 -8v-142q0 -10 -10 -10h-1176zM586 731l96 14q-72 47 -72 129q0 87 57 136t152 49q76 0 135 -31l-30 -92q-43 25 -103 25 q-45 0 -75.5 -25.5t-30.5 -79.5q0 -35 17.5 -59.5t43.5 -36.5q24 5 100 15.5t105 10.5v-100q-17 0 -90 -7.5t-108 -12.5q-177 -25 -197 -29v94zM778 1464q-46 0 -76 26.5t-30 86.5q0 59 30 86t76 27q43 0 74.5 -27.5t31.5 -85.5q0 -60 -31.5 -86.5t-74.5 -26.5zM602 1188 q-48 0 -81.5 29t-33.5 94t33.5 94t81.5 29q55 0 85 -33.5t30 -89.5t-30 -89.5t-85 -33.5zM956 1188q-53 0 -84 32t-31 91t30.5 91t84.5 32q55 0 85 -33.5t30 -89.5t-30 -89.5t-85 -33.5z" />
<glyph unicode="&#x6ae;" horiz-adv-x="1180" d="M-10 0q-10 0 -10 10v142q0 8 10 8h862v377q0 153 -92 225t-285 72h-348v167q66 138 182 271.5t259.5 238t279.5 156.5l65 -156q-188 -74 -368 -224.5t-248 -293.5h178q268 0 409.5 -110t141.5 -316v-567h-1036zM510 -688q-46 0 -76 26.5t-30 86.5q0 58 30 85t76 27 q43 0 74.5 -27t31.5 -85q0 -60 -31.5 -86.5t-74.5 -26.5zM334 -438q-48 0 -81.5 29t-33.5 94q0 64 33.5 93t81.5 29q54 0 84.5 -33t30.5 -89t-30 -89.5t-85 -33.5zM688 -438q-53 0 -84 32t-31 91q0 58 31 90t84 32q54 0 84.5 -33t30.5 -89t-30 -89.5t-85 -33.5z" />
<glyph unicode="&#x6ae;" horiz-adv-x="1282" d="M-10 0q-10 0 -10 10v142q0 8 10 8h862v377q0 153 -92 225t-285 72h-348v167q66 138 182 271.5t259.5 238t279.5 156.5l65 -156q-188 -74 -368 -224.5t-248 -293.5h178q268 0 409.5 -110t141.5 -316v-407h266q11 0 11 -8v-142q0 -10 -11 -10h-1302zM502 -688 q-46 0 -76 26.5t-30 86.5q0 58 30 85t76 27q43 0 74.5 -27t31.5 -85q0 -60 -31.5 -86.5t-74.5 -26.5zM326 -438q-48 0 -81.5 29t-33.5 94q0 64 33.5 93t81.5 29q54 0 84.5 -33t30.5 -89t-30 -89.5t-85 -33.5zM680 -438q-53 0 -84 32t-31 91q0 58 31 90t84 32q54 0 84.5 -33 t30.5 -89t-30 -89.5t-85 -33.5z" />
<glyph unicode="&#x6ae;" horiz-adv-x="1681" d="M516 0q-186 0 -284.5 95t-98.5 272q0 136 51 276h154q-31 -146 -31 -262q0 -103 54.5 -162t148.5 -59h735v1396h174v-1396h273q10 0 10 -8v-142q0 -10 -10 -10h-1176zM586 731l96 14q-72 47 -72 129q0 87 57 136t152 49q76 0 135 -31l-30 -92q-43 25 -103 25 q-45 0 -75.5 -25.5t-30.5 -79.5q0 -35 17.5 -59.5t43.5 -36.5q24 5 100 15.5t105 10.5v-100q-17 0 -90 -7.5t-108 -12.5q-177 -25 -197 -29v94zM801 -688q-46 0 -76 26.5t-30 86.5q0 58 30 85t76 27q43 0 74.5 -27t31.5 -85q0 -60 -31.5 -86.5t-74.5 -26.5zM625 -438 q-48 0 -81.5 29t-33.5 94q0 64 33.5 93t81.5 29q54 0 84.5 -33t30.5 -89t-30 -89.5t-85 -33.5zM979 -438q-53 0 -84 32t-31 91q0 58 31 90t84 32q54 0 84.5 -33t30.5 -89t-30 -89.5t-85 -33.5z" />
<glyph unicode="&#x6b0;" horiz-adv-x="1180" d="M707 1051q-92 0 -152.5 47t-71.5 135q-130 -123 -186 -240h178q268 0 409.5 -110t141.5 -316v-567h-1036q-10 0 -10 10v142q0 8 10 8h862v377q0 153 -92 225t-285 72h-348v167q66 138 182 271.5t259.5 238t279.5 156.5l65 -156q-70 -30 -106 -49q59 -23 94 -73t35 -121 q0 -97 -61.5 -157t-167.5 -60zM707 1153q49 0 80.5 29.5t31.5 83.5t-31.5 83t-80.5 29q-50 0 -81.5 -29t-31.5 -83t28.5 -83.5t84.5 -29.5zM76 1284q67 150 265 331.5t397 264.5l59 -137q-126 -48 -266 -148t-246.5 -215t-153.5 -217z" />
<glyph unicode="&#x6b0;" horiz-adv-x="1282" d="M707 1051q-92 0 -152.5 47t-71.5 135q-130 -123 -186 -240h178q268 0 409.5 -110t141.5 -316v-407h266q11 0 11 -8v-142q0 -10 -11 -10h-1302q-10 0 -10 10v142q0 8 10 8h862v377q0 153 -92 225t-285 72h-348v167q66 138 182 271.5t259.5 238t279.5 156.5l65 -156 q-70 -30 -106 -49q59 -23 94 -73t35 -121q0 -97 -61.5 -157t-167.5 -60zM707 1153q49 0 80.5 29.5t31.5 83.5t-31.5 83t-80.5 29q-50 0 -81.5 -29t-31.5 -83t28.5 -83.5t84.5 -29.5zM76 1284q67 150 265 331.5t397 264.5l59 -137q-126 -48 -266 -148t-246.5 -215 t-153.5 -217z" />
<glyph unicode="&#x6b0;" horiz-adv-x="1757" d="M1182 1051q-92 0 -152.5 47t-71.5 135q-131 -127 -186 -240h178q268 0 409.5 -110t141.5 -316v-407h266q11 0 11 -8v-142q0 -10 -11 -10h-1251q-186 0 -284.5 95t-98.5 272q0 52 11 129t30 147h164q-31 -170 -31 -256q0 -106 54.5 -166.5t148.5 -60.5h817v377 q0 153 -92 225t-285 72h-348v167q66 138 182 271.5t259.5 238t279.5 156.5l66 -156q-75 -32 -107 -49q59 -23 94 -73t35 -121q0 -97 -61.5 -157t-167.5 -60zM1182 1153q49 0 80.5 29.5t31.5 83.5t-31.5 83t-80.5 29q-50 0 -81.5 -29t-31.5 -83t28.5 -83.5t84.5 -29.5z M547 1284q67 150 265 331.5t397 264.5l59 -137q-126 -48 -266 -148t-246.5 -215t-153.5 -217z" />
<glyph unicode="&#x6b1;" horiz-adv-x="1180" arabic-form="initial" d="M-10 0q-10 0 -10 10v142q0 8 10 8h862v377q0 153 -92 225t-285 72h-348v167q66 138 182 271.5t259.5 238t279.5 156.5l65 -156q-188 -74 -368 -224.5t-248 -293.5h178q268 0 409.5 -110t141.5 -316v-567h-1036zM76 1284q67 150 265 331.5t397 264.5l59 -137 q-126 -48 -266 -148t-246.5 -215t-153.5 -217zM182 1653q-34 0 -57 20.5t-23 65.5t23 65.5t57 20.5q32 0 56 -20.5t24 -65.5t-24 -65.5t-56 -20.5zM389 1823q-34 0 -57 20.5t-23 65.5t23 65.5t57 20.5q32 0 56 -20.5t24 -65.5t-24 -65.5t-56 -20.5z" />
<glyph unicode="&#x6b1;" horiz-adv-x="1282" arabic-form="medial" d="M-10 0q-10 0 -10 10v142q0 8 10 8h862v377q0 153 -92 225t-285 72h-348v167q66 138 182 271.5t259.5 238t279.5 156.5l65 -156q-188 -74 -368 -224.5t-248 -293.5h178q268 0 409.5 -110t141.5 -316v-407h266q11 0 11 -8v-142q0 -10 -11 -10h-1302zM76 1284 q67 150 265 331.5t397 264.5l59 -137q-126 -48 -266 -148t-246.5 -215t-153.5 -217zM182 1653q-34 0 -57 20.5t-23 65.5t23 65.5t57 20.5q32 0 56 -20.5t24 -65.5t-24 -65.5t-56 -20.5zM389 1823q-34 0 -57 20.5t-23 65.5t23 65.5t57 20.5q32 0 56 -20.5t24 -65.5t-24 -65.5 t-56 -20.5z" />
<glyph unicode="&#x6b1;" horiz-adv-x="1757" arabic-form="final" d="M516 0q-186 0 -284.5 95t-98.5 272q0 52 11 129t30 147h164q-31 -170 -31 -256q0 -106 54.5 -166.5t148.5 -60.5h817v377q0 153 -92 225t-285 72h-348v167q66 138 182 271.5t259.5 238t279.5 156.5l66 -156q-186 -72 -367 -223t-250 -295h178q268 0 409.5 -110 t141.5 -316v-407h266q11 0 11 -8v-142q0 -10 -11 -10h-1251zM547 1284q67 150 265 331.5t397 264.5l59 -137q-126 -48 -266 -148t-246.5 -215t-153.5 -217zM653 1653q-34 0 -57 20.5t-23 65.5t23 65.5t57 20.5q32 0 56 -20.5t24 -65.5t-24 -65.5t-56 -20.5zM860 1823 q-34 0 -57 20.5t-23 65.5t23 65.5t57 20.5q32 0 56 -20.5t24 -65.5t-24 -65.5t-56 -20.5z" />
<glyph unicode="&#x6b2;" horiz-adv-x="1180" d="M-10 0q-10 0 -10 10v142q0 8 10 8h862v377q0 153 -92 225t-285 72h-348v167q66 138 182 271.5t259.5 238t279.5 156.5l65 -156q-188 -74 -368 -224.5t-248 -293.5h178q268 0 409.5 -110t141.5 -316v-567h-1036zM76 1284q67 150 265 331.5t397 264.5l59 -137 q-126 -48 -266 -148t-246.5 -215t-153.5 -217zM338 -410q-48 0 -81.5 29t-33.5 94t33.5 94t81.5 29q52 0 83 -31.5t31 -91.5q0 -59 -30.5 -91t-83.5 -32zM692 -410q-53 0 -84 32t-31 91t30.5 91t84.5 32q55 0 85 -33.5t30 -89.5t-30 -89.5t-85 -33.5z" />
<glyph unicode="&#x6b2;" horiz-adv-x="1282" d="M-10 0q-10 0 -10 10v142q0 8 10 8h862v377q0 153 -92 225t-285 72h-348v167q66 138 182 271.5t259.5 238t279.5 156.5l65 -156q-188 -74 -368 -224.5t-248 -293.5h178q268 0 409.5 -110t141.5 -316v-407h266q11 0 11 -8v-142q0 -10 -11 -10h-1302zM76 1284 q67 150 265 331.5t397 264.5l59 -137q-126 -48 -266 -148t-246.5 -215t-153.5 -217zM336 -410q-48 0 -81.5 29t-33.5 94t33.5 94t81.5 29q52 0 83 -31.5t31 -91.5q0 -59 -30.5 -91t-83.5 -32zM690 -410q-53 0 -84 32t-31 91t30.5 91t84.5 32q55 0 85 -33.5t30 -89.5 t-30 -89.5t-85 -33.5z" />
<glyph unicode="&#x6b2;" horiz-adv-x="1757" d="M516 0q-186 0 -284.5 95t-98.5 272q0 52 11 129t30 147h164q-31 -170 -31 -256q0 -106 54.5 -166.5t148.5 -60.5h817v377q0 153 -92 225t-285 72h-348v167q66 138 182 271.5t259.5 238t279.5 156.5l66 -156q-186 -72 -367 -223t-250 -295h178q268 0 409.5 -110 t141.5 -316v-407h266q11 0 11 -8v-142q0 -10 -11 -10h-1251zM547 1284q67 150 265 331.5t397 264.5l59 -137q-126 -48 -266 -148t-246.5 -215t-153.5 -217zM676 -410q-48 0 -81.5 29t-33.5 94t33.5 94t81.5 29q52 0 83 -31.5t31 -91.5q0 -59 -30.5 -91t-83.5 -32zM1030 -410 q-53 0 -84 32t-31 91t30.5 91t84.5 32q55 0 85 -33.5t30 -89.5t-30 -89.5t-85 -33.5z" />
<glyph unicode="&#x6b3;" horiz-adv-x="1180" arabic-form="initial" d="M-10 0q-10 0 -10 10v142q0 8 10 8h862v377q0 153 -92 225t-285 72h-348v167q66 138 182 271.5t259.5 238t279.5 156.5l65 -156q-188 -74 -368 -224.5t-248 -293.5h178q268 0 409.5 -110t141.5 -316v-567h-1036zM76 1284q67 150 265 331.5t397 264.5l59 -137 q-126 -48 -266 -148t-246.5 -215t-153.5 -217zM510 -780q-53 0 -84 32t-31 91q0 58 31 90t84 32q54 0 84.5 -33t30.5 -89t-30 -89.5t-85 -33.5zM510 -410q-53 0 -84 32t-31 91t30.5 91t84.5 32q55 0 85 -33.5t30 -89.5t-30 -89.5t-85 -33.5z" />
<glyph unicode="&#x6b3;" horiz-adv-x="1282" arabic-form="medial" d="M-10 0q-10 0 -10 10v142q0 8 10 8h862v377q0 153 -92 225t-285 72h-348v167q66 138 182 271.5t259.5 238t279.5 156.5l65 -156q-188 -74 -368 -224.5t-248 -293.5h178q268 0 409.5 -110t141.5 -316v-407h266q11 0 11 -8v-142q0 -10 -11 -10h-1302zM76 1284 q67 150 265 331.5t397 264.5l59 -137q-126 -48 -266 -148t-246.5 -215t-153.5 -217zM520 -780q-53 0 -84 32t-31 91q0 58 31 90t84 32q54 0 84.5 -33t30.5 -89t-30 -89.5t-85 -33.5zM520 -410q-53 0 -84 32t-31 91t30.5 91t84.5 32q55 0 85 -33.5t30 -89.5t-30 -89.5 t-85 -33.5z" />
<glyph unicode="&#x6b3;" horiz-adv-x="1757" arabic-form="final" d="M516 0q-186 0 -284.5 95t-98.5 272q0 52 11 129t30 147h164q-31 -170 -31 -256q0 -106 54.5 -166.5t148.5 -60.5h817v377q0 153 -92 225t-285 72h-348v167q66 138 182 271.5t259.5 238t279.5 156.5l66 -156q-186 -72 -367 -223t-250 -295h178q268 0 409.5 -110 t141.5 -316v-407h266q11 0 11 -8v-142q0 -10 -11 -10h-1251zM547 1284q67 150 265 331.5t397 264.5l59 -137q-126 -48 -266 -148t-246.5 -215t-153.5 -217zM858 -780q-53 0 -84 32t-31 91q0 58 31 90t84 32q54 0 84.5 -33t30.5 -89t-30 -89.5t-85 -33.5zM858 -410 q-53 0 -84 32t-31 91t30.5 91t84.5 32q55 0 85 -33.5t30 -89.5t-30 -89.5t-85 -33.5z" />
<glyph unicode="&#x6b4;" horiz-adv-x="1180" d="M-10 0q-10 0 -10 10v142q0 8 10 8h862v377q0 153 -92 225t-285 72h-348v167q66 138 182 271.5t259.5 238t279.5 156.5l65 -156q-188 -74 -368 -224.5t-248 -293.5h178q268 0 409.5 -110t141.5 -316v-567h-1036zM76 1284q67 150 265 331.5t397 264.5l59 -137 q-126 -48 -266 -148t-246.5 -215t-153.5 -217zM183 1653q-34 0 -57 20.5t-23 65.5t23 65.5t57 20.5q32 0 56 -20.5t24 -65.5t-24 -65.5t-56 -20.5zM390 1823q-34 0 -57 20.5t-23 65.5t23 65.5t57 20.5q32 0 56 -20.5t24 -65.5t-24 -65.5t-56 -20.5zM148 1917q-34 0 -57 20.5 t-23 65.5t23 65.5t57 20.5q32 0 56 -20.5t24 -65.5t-24 -65.5t-56 -20.5z" />
<glyph unicode="&#x6b4;" horiz-adv-x="1282" d="M-10 0q-10 0 -10 10v142q0 8 10 8h862v377q0 153 -92 225t-285 72h-348v167q66 138 182 271.5t259.5 238t279.5 156.5l65 -156q-188 -74 -368 -224.5t-248 -293.5h178q268 0 409.5 -110t141.5 -316v-407h266q11 0 11 -8v-142q0 -10 -11 -10h-1302zM76 1284 q67 150 265 331.5t397 264.5l59 -137q-126 -48 -266 -148t-246.5 -215t-153.5 -217zM183 1653q-34 0 -57 20.5t-23 65.5t23 65.5t57 20.5q32 0 56 -20.5t24 -65.5t-24 -65.5t-56 -20.5zM390 1823q-34 0 -57 20.5t-23 65.5t23 65.5t57 20.5q32 0 56 -20.5t24 -65.5t-24 -65.5 t-56 -20.5zM148 1917q-34 0 -57 20.5t-23 65.5t23 65.5t57 20.5q32 0 56 -20.5t24 -65.5t-24 -65.5t-56 -20.5z" />
<glyph unicode="&#x6b4;" horiz-adv-x="1757" d="M516 0q-186 0 -284.5 95t-98.5 272q0 52 11 129t30 147h164q-31 -170 -31 -256q0 -106 54.5 -166.5t148.5 -60.5h817v377q0 153 -92 225t-285 72h-348v167q66 138 182 271.5t259.5 238t279.5 156.5l66 -156q-186 -72 -367 -223t-250 -295h178q268 0 409.5 -110 t141.5 -316v-407h266q11 0 11 -8v-142q0 -10 -11 -10h-1251zM547 1284q67 150 265 331.5t397 264.5l59 -137q-126 -48 -266 -148t-246.5 -215t-153.5 -217zM654 1653q-34 0 -57 20.5t-23 65.5t23 65.5t57 20.5q32 0 56 -20.5t24 -65.5t-24 -65.5t-56 -20.5zM861 1823 q-34 0 -57 20.5t-23 65.5t23 65.5t57 20.5q32 0 56 -20.5t24 -65.5t-24 -65.5t-56 -20.5zM619 1917q-34 0 -57 20.5t-23 65.5t23 65.5t57 20.5q32 0 56 -20.5t24 -65.5t-24 -65.5t-56 -20.5z" />
<glyph unicode="&#x6b5;" horiz-adv-x="647" d="M-10 0q-10 0 -10 10v142q0 8 10 8h270v1396h182v-1556h-452zM615 2079l-225 -408h-127l-228 408h160l129 -264l133 264h158z" />
<glyph unicode="&#x6b5;" horiz-adv-x="698" d="M-10 0q-10 0 -10 10v142q0 8 10 8h270v1396h182v-1396h267q10 0 10 -8v-142q0 -10 -10 -10h-719zM625 2079l-225 -408h-127l-228 408h160l129 -264l133 264h158z" />
<glyph unicode="&#x6b5;" horiz-adv-x="1417" d="M1202 0q-3 -243 -126 -367.5t-384 -124.5h-147q-190 0 -301 140t-111 385q0 126 22 255.5t62 227.5h170q-70 -177 -70 -483q0 -175 70 -270t197 -95h100q178 0 261 81t83 245v1562h174v-1396h225q11 0 11 -8v-142q0 -10 -11 -10h-225zM1399 2079l-225 -408h-127l-228 408 h160l129 -264l133 264h158z" />
<glyph unicode="&#x6b6;" horiz-adv-x="647" d="M-10 0q-10 0 -10 10v142q0 8 10 8h270v1396h182v-1556h-452zM344 1682q-53 0 -84 32t-31 91t30.5 91t84.5 32q55 0 85 -33.5t30 -89.5t-30 -89.5t-85 -33.5z" />
<glyph unicode="&#x6b6;" horiz-adv-x="698" d="M-10 0q-10 0 -10 10v142q0 8 10 8h270v1396h182v-1396h267q10 0 10 -8v-142q0 -10 -10 -10h-719zM350 1682q-53 0 -84 32t-31 91t30.5 91t84.5 32q55 0 85 -33.5t30 -89.5t-30 -89.5t-85 -33.5z" />
<glyph unicode="&#x6b6;" horiz-adv-x="1417" d="M1202 0q-3 -243 -126 -367.5t-384 -124.5h-147q-190 0 -301 140t-111 385q0 126 22 255.5t62 227.5h170q-70 -177 -70 -483q0 -175 70 -270t197 -95h100q178 0 261 81t83 245v1562h174v-1396h225q11 0 11 -8v-142q0 -10 -11 -10h-225zM1108 1682q-53 0 -84 32t-31 91 t30.5 91t84.5 32q55 0 85 -33.5t30 -89.5t-30 -89.5t-85 -33.5z" />
<glyph unicode="&#x6b7;" horiz-adv-x="647" d="M-10 0q-10 0 -10 10v142q0 8 10 8h270v1396h182v-1556h-452zM328 1915q-74 0 -74 80q0 40 21 59t53 19q31 0 53.5 -19t22.5 -59q0 -43 -22.5 -61.5t-53.5 -18.5zM205 1723q-80 0 -80 86q0 45 23 65.5t57 20.5q32 0 56 -20.5t24 -65.5q0 -47 -24 -66.5t-56 -19.5z M453 1723q-80 0 -80 86q0 45 23 65.5t57 20.5q32 0 56 -20.5t24 -65.5q0 -47 -24 -66.5t-56 -19.5z" />
<glyph unicode="&#x6b7;" horiz-adv-x="698" d="M-10 0q-10 0 -10 10v142q0 8 10 8h270v1396h182v-1396h267q10 0 10 -8v-142q0 -10 -10 -10h-719zM350 1915q-74 0 -74 80q0 40 21 59t53 19q31 0 53.5 -19t22.5 -59q0 -43 -22.5 -61.5t-53.5 -18.5zM227 1723q-80 0 -80 86q0 45 23 65.5t57 20.5q32 0 56 -20.5t24 -65.5 q0 -47 -24 -66.5t-56 -19.5zM475 1723q-80 0 -80 86q0 45 23 65.5t57 20.5q32 0 56 -20.5t24 -65.5q0 -47 -24 -66.5t-56 -19.5z" />
<glyph unicode="&#x6b7;" horiz-adv-x="1417" d="M1202 0q-3 -243 -126 -367.5t-384 -124.5h-147q-190 0 -301 140t-111 385q0 126 22 255.5t62 227.5h170q-70 -177 -70 -483q0 -175 70 -270t197 -95h100q178 0 261 81t83 245v1562h174v-1396h225q11 0 11 -8v-142q0 -10 -11 -10h-225zM1096 1915q-74 0 -74 80q0 40 21 59 t53 19q31 0 53.5 -19t22.5 -59q0 -43 -22.5 -61.5t-53.5 -18.5zM973 1723q-80 0 -80 86q0 45 23 65.5t57 20.5q32 0 56 -20.5t24 -65.5q0 -47 -24 -66.5t-56 -19.5zM1221 1723q-80 0 -80 86q0 45 23 65.5t57 20.5q32 0 56 -20.5t24 -65.5q0 -47 -24 -66.5t-56 -19.5z" />
<glyph unicode="&#x6b8;" horiz-adv-x="647" d="M-10 0q-10 0 -10 10v142q0 8 10 8h270v1396h182v-1556h-452zM319 -688q-46 0 -76 26.5t-30 86.5q0 58 30 85t76 27q43 0 74.5 -27t31.5 -85q0 -60 -31.5 -86.5t-74.5 -26.5zM143 -438q-48 0 -81.5 29t-33.5 94q0 64 33.5 93t81.5 29q54 0 84.5 -33t30.5 -89t-30 -89.5 t-85 -33.5zM497 -438q-53 0 -84 32t-31 91q0 58 31 90t84 32q54 0 84.5 -33t30.5 -89t-30 -89.5t-85 -33.5z" />
<glyph unicode="&#x6b8;" horiz-adv-x="698" d="M-10 0q-10 0 -10 10v142q0 8 10 8h270v1396h182v-1396h267q10 0 10 -8v-142q0 -10 -10 -10h-719zM346 -688q-46 0 -76 26.5t-30 86.5q0 58 30 85t76 27q43 0 74.5 -27t31.5 -85q0 -60 -31.5 -86.5t-74.5 -26.5zM170 -438q-48 0 -81.5 29t-33.5 94q0 64 33.5 93t81.5 29 q54 0 84.5 -33t30.5 -89t-30 -89.5t-85 -33.5zM524 -438q-53 0 -84 32t-31 91q0 58 31 90t84 32q54 0 84.5 -33t30.5 -89t-30 -89.5t-85 -33.5z" />
<glyph unicode="&#x6b8;" horiz-adv-x="1417" d="M1202 0q-3 -243 -126 -367.5t-384 -124.5h-147q-190 0 -301 140t-111 385q0 126 22 255.5t62 227.5h170q-70 -177 -70 -483q0 -175 70 -270t197 -95h100q178 0 261 81t83 245v1562h174v-1396h225q11 0 11 -8v-142q0 -10 -11 -10h-225zM678 -1002q-74 0 -74 79 q0 41 21 59.5t53 18.5q31 0 53.5 -18.5t22.5 -59.5q0 -43 -22.5 -61t-53.5 -18zM555 -826q-80 0 -80 86q0 45 23 65.5t57 20.5q32 0 56 -20.5t24 -65.5q0 -47 -24 -66.5t-56 -19.5zM803 -826q-80 0 -80 86q0 45 23 65.5t57 20.5q32 0 56 -20.5t24 -65.5q0 -47 -24 -66.5 t-56 -19.5z" />
<glyph unicode="&#x6b9;" horiz-adv-x="616" d="M-10 0q-10 0 -10 10v142q0 8 10 8h270v833h182v-993h-452zM344 1188q-53 0 -84 32t-31 91t30.5 91t84.5 32q55 0 85 -33.5t30 -89.5t-30 -89.5t-85 -33.5zM324 -410q-53 0 -84 32t-31 91t30.5 91t84.5 32q55 0 85 -33.5t30 -89.5t-30 -89.5t-85 -33.5z" />
<glyph unicode="&#x6b9;" horiz-adv-x="698" d="M-10 0q-10 0 -10 10v142q0 8 10 8h270v833h182v-833h267q10 0 10 -8v-142q0 -10 -10 -10h-719zM344 1188q-53 0 -84 32t-31 91t30.5 91t84.5 32q55 0 85 -33.5t30 -89.5t-30 -89.5t-85 -33.5zM324 -410q-53 0 -84 32t-31 91t30.5 91t84.5 32q55 0 85 -33.5t30 -89.5 t-30 -89.5t-85 -33.5z" />
<glyph unicode="&#x6b9;" horiz-adv-x="1417" d="M1202 0q-3 -243 -126 -367.5t-384 -124.5h-147q-192 0 -302 133t-110 361q0 245 84 453h170q-70 -177 -70 -441q0 -166 69 -256t198 -90h100q178 0 261 81t83 247v997h174v-833h225q11 0 11 -8v-142q0 -10 -11 -10h-225zM672 994q-53 0 -84 32t-31 91t30.5 91t84.5 32 q55 0 85 -33.5t30 -89.5t-30 -89.5t-85 -33.5zM662 -901q-53 0 -84 32t-31 91t30.5 91t84.5 32q55 0 85 -33.5t30 -89.5t-30 -89.5t-85 -33.5z" />
<glyph unicode="&#x6bb;" horiz-adv-x="1417" arabic-form="final" d="M1202 0q-3 -243 -126 -367.5t-384 -124.5h-147q-192 0 -302 133t-110 361q0 245 84 453h170q-70 -177 -70 -441q0 -166 69 -256t198 -90h100q178 0 261 81t83 247v997h174v-833h225q11 0 11 -8v-142q0 -10 -11 -10h-225zM452 994h31v373h82v-260q25 60 62.5 96.5 t97.5 36.5q151 0 151 -178v-156h-424v88zM794 994v51q0 54 -18 80.5t-61 26.5q-48 0 -84.5 -32.5t-65.5 -104.5v-21h229z" />
<glyph unicode="&#x6bc;" horiz-adv-x="616" d="M-10 0q-10 0 -10 10v142q0 8 10 8h270v833h182v-993h-452zM344 1188q-53 0 -84 32t-31 91t30.5 91t84.5 32q55 0 85 -33.5t30 -89.5t-30 -89.5t-85 -33.5zM242 -327q-102 0 -162.5 57.5t-60.5 157.5q0 101 61 158t162 57q103 0 166 -58.5t63 -154.5q0 -99 -63 -158 t-166 -59zM242 -224q49 0 81 29t32 83t-32 83.5t-81 29.5q-50 0 -81.5 -29.5t-31.5 -83.5q0 -112 113 -112z" />
<glyph unicode="&#x6bc;" horiz-adv-x="698" d="M-10 0q-10 0 -10 10v142q0 8 10 8h270v833h182v-833h267q10 0 10 -8v-142q0 -10 -10 -10h-719zM344 1188q-53 0 -84 32t-31 91t30.5 91t84.5 32q55 0 85 -33.5t30 -89.5t-30 -89.5t-85 -33.5zM344 -327q-102 0 -162.5 57.5t-60.5 157.5q0 101 61 158t162 57 q103 0 166 -58.5t63 -154.5q0 -99 -63 -158t-166 -59zM344 -224q49 0 81 29t32 83t-32 83.5t-81 29.5q-50 0 -81.5 -29.5t-31.5 -83.5q0 -112 113 -112z" />
<glyph unicode="&#x6bc;" horiz-adv-x="1417" d="M1202 0q-3 -243 -126 -367.5t-384 -124.5h-147q-192 0 -302 133t-110 361q0 245 84 453h170q-70 -177 -70 -441q0 -166 69 -256t198 -90h100q178 0 261 81t83 247v997h174v-833h225q11 0 11 -8v-142q0 -10 -11 -10h-225zM672 994q-53 0 -84 32t-31 91t30.5 91t84.5 32 q55 0 85 -33.5t30 -89.5t-30 -89.5t-85 -33.5zM635 -818q-102 0 -162.5 57.5t-60.5 157.5q0 101 61 158t162 57q103 0 166 -58.5t63 -154.5q0 -99 -63 -158t-166 -59zM635 -715q49 0 81 29t32 83t-32 83.5t-81 29.5q-50 0 -81.5 -29.5t-31.5 -83.5q0 -112 113 -112z" />
<glyph unicode="&#x6bd;" horiz-adv-x="1417" d="M1202 0q-3 -243 -126 -367.5t-384 -124.5h-147q-192 0 -302 133t-110 361q0 245 84 453h170q-70 -177 -70 -441q0 -166 69 -256t198 -90h100q178 0 261 81t83 247v997h174v-833h225q11 0 11 -8v-142q0 -10 -11 -10h-225zM629 1025q-46 0 -76 26.5t-30 86.5q0 59 30 86 t76 27q43 0 74.5 -27.5t31.5 -85.5q0 -60 -31.5 -86.5t-74.5 -26.5zM453 749q-48 0 -81.5 29t-33.5 94t33.5 94t81.5 29q55 0 85 -33.5t30 -89.5t-30 -89.5t-85 -33.5zM807 749q-53 0 -84 32t-31 91t30.5 91t84.5 32q55 0 85 -33.5t30 -89.5t-30 -89.5t-85 -33.5z" />
<glyph unicode="&#x6bf;" horiz-adv-x="1188" d="M-10 0q-10 0 -10 10v142q0 8 10 8h878q-75 75 -129 375q-30 177 -87 248t-171 71q-142 0 -297 -82l-71 141q88 57 177.5 79t192.5 22q125 0 209 -45t133.5 -133.5t75.5 -253.5q30 -183 67.5 -282.5t86.5 -143.5v-156h-1065zM469 1188q-53 0 -84 32t-31 91t30.5 91 t84.5 32q55 0 85 -33.5t30 -89.5t-30 -89.5t-85 -33.5zM471 -655q-46 0 -76 26.5t-30 86.5q0 58 30 85t76 27q43 0 74.5 -27t31.5 -85q0 -60 -31.5 -86.5t-74.5 -26.5zM295 -405q-48 0 -81.5 29t-33.5 94q0 64 33.5 93t81.5 29q54 0 84.5 -33t30.5 -89t-30 -89.5t-85 -33.5z M649 -405q-53 0 -84 32t-31 91q0 58 31 90t84 32q54 0 84.5 -33t30.5 -89t-30 -89.5t-85 -33.5z" />
<glyph unicode="&#x6bf;" horiz-adv-x="1176" d="M-10 0q-10 0 -10 10v142q0 8 10 8h878q-79 79 -129 375q-29 174 -87 246.5t-171 72.5q-142 0 -297 -82l-71 141q88 57 177.5 79t192.5 22q125 0 209 -45t133.5 -133.5t75.5 -253.5q47 -321 148 -422h137q10 0 10 -8v-142q0 -10 -10 -10h-1196zM469 1188q-53 0 -84 32 t-31 91t30.5 91t84.5 32q55 0 85 -33.5t30 -89.5t-30 -89.5t-85 -33.5zM471 -655q-46 0 -76 26.5t-30 86.5q0 58 30 85t76 27q43 0 74.5 -27t31.5 -85q0 -60 -31.5 -86.5t-74.5 -26.5zM295 -405q-48 0 -81.5 29t-33.5 94q0 64 33.5 93t81.5 29q54 0 84.5 -33t30.5 -89 t-30 -89.5t-85 -33.5zM649 -405q-53 0 -84 32t-31 91q0 58 31 90t84 32q54 0 84.5 -33t30.5 -89t-30 -89.5t-85 -33.5z" />
<glyph unicode="&#x6bf;" horiz-adv-x="1257" d="M518 -657q-198 0 -312 103.5t-114 291.5q0 130 77 239t241 199t452 174q-22 70 -41 185q-27 162 -100.5 240.5t-198.5 78.5q-73 0 -176 -29.5t-182 -72.5l-72 141q79 51 198 86t234 35q392 0 459 -432q32 -196 63 -271t81 -113t130 -38h11q10 0 10 -8v-142q0 -10 -10 -10 h-11q-112 0 -195.5 48.5t-141.5 156.5q-245 -67 -380 -133.5t-198 -145.5t-63 -172q0 -254 278 -254zM823 -590q-46 0 -76 26.5t-30 86.5q0 58 30 85t76 27q43 0 74.5 -27t31.5 -85q0 -60 -31.5 -86.5t-74.5 -26.5zM647 -340q-48 0 -81.5 29t-33.5 94q0 64 33.5 93t81.5 29 q54 0 84.5 -33t30.5 -89t-30 -89.5t-85 -33.5zM1001 -340q-53 0 -84 32t-31 91q0 58 31 90t84 32q54 0 84.5 -33t30.5 -89t-30 -89.5t-85 -33.5zM530 1188q-53 0 -84 32t-31 91t30.5 91t84.5 32q55 0 85 -33.5t30 -89.5t-30 -89.5t-85 -33.5z" />
<glyph unicode="&#x6c4;" horiz-adv-x="1133" d="M975 0v-90q0 -146 -78.5 -280t-253.5 -285l-113 129l76 65q-73 14 -114 62.5t-41 128.5q0 94 52 144t150 50q93 0 148 -49l2 12v113h-201q-218 0 -337.5 120t-119.5 347q0 241 153 383.5t409 142.5h268v-833h168q10 0 10 -8v-142q0 -10 -10 -10h-168zM801 160v674h-88 q-182 0 -283.5 -96t-101.5 -269q0 -160 69.5 -234.5t210.5 -74.5h193zM653 -362q39 0 65.5 25t26.5 67q0 49 -27.5 70.5t-64.5 21.5q-40 0 -66 -26t-26 -66q0 -43 23.5 -67.5t68.5 -24.5z" />
<glyph unicode="&#x6c5;" horiz-adv-x="1149" arabic-form="final" d="M530 -526q149 123 209 217l-58 21q-60 24 -92.5 32t-68.5 8q-41 0 -112 -31l-52 76q54 42 89.5 58t76.5 16q50 0 127 -28q99 -37 139 -46q15 54 15 103v100h-201q-218 0 -337.5 120t-119.5 347q0 241 153 383.5t409 142.5h268v-833h184q10 0 10 -8v-142q0 -10 -10 -10 h-184v-90q0 -146 -78.5 -280t-253.5 -285zM801 160v674h-88q-182 0 -283.5 -96t-101.5 -269q0 -160 69.5 -234.5t210.5 -74.5h193z" />
<glyph unicode="&#x6c6;" horiz-adv-x="1133" arabic-form="final" d="M801 160v674h-88q-182 0 -283.5 -96t-101.5 -269q0 -160 69.5 -234.5t210.5 -74.5h193zM975 -49q0 -209 -123.5 -326t-349.5 -117q-209 0 -369 105l82 137q66 -35 136 -58.5t155 -23.5q139 0 218 74.5t79 198.5v59h-201q-218 0 -337.5 120t-119.5 347q0 241 153 383.5 t409 142.5h268v-833h168q10 0 10 -8v-142q0 -10 -10 -10h-168v-49zM907 1696l-225 -408h-127l-228 408h160l129 -264l133 264h158z" />
<glyph unicode="&#x6c7;" horiz-adv-x="1133" arabic-form="final" d="M801 160v674h-88q-182 0 -283.5 -96t-101.5 -269q0 -160 69.5 -234.5t210.5 -74.5h193zM975 -49q0 -209 -123.5 -326t-349.5 -117q-209 0 -369 105l82 137q66 -35 136 -58.5t155 -23.5q139 0 218 74.5t79 198.5v59h-201q-218 0 -337.5 120t-119.5 347q0 241 153 383.5 t409 142.5h268v-833h168q10 0 10 -8v-142q0 -10 -10 -10h-168v-49zM395 1168q-114 0 -209 68l59 86q76 -51 146 -51q60 0 102 14q-65 83 -65 174q0 78 51 124t133 46t129 -46.5t47 -115.5q0 -73 -54.5 -143.5t-146.5 -113t-192 -42.5zM583 1320q54 29 76.5 66.5t22.5 72.5 q0 32 -21 52t-53 20q-31 0 -53.5 -20t-22.5 -62q0 -63 51 -129z" />
<glyph unicode="&#x6c8;" horiz-adv-x="1133" arabic-form="final" d="M801 160v674h-88q-182 0 -283.5 -96t-101.5 -269q0 -160 69.5 -234.5t210.5 -74.5h193zM975 -49q0 -209 -123.5 -326t-349.5 -117q-209 0 -369 105l82 137q66 -35 136 -58.5t155 -23.5q139 0 218 74.5t79 198.5v59h-201q-218 0 -337.5 120t-119.5 347q0 241 153 383.5 t409 142.5h268v-833h168q10 0 10 -8v-142q0 -10 -10 -10h-168v-49zM572 1600h116v-397h-116v397z" />
<glyph unicode="&#x6c9;" horiz-adv-x="1133" arabic-form="final" d="M801 160v674h-88q-182 0 -283.5 -96t-101.5 -269q0 -160 69.5 -234.5t210.5 -74.5h193zM975 -49q0 -209 -123.5 -326t-349.5 -117q-209 0 -369 105l82 137q66 -35 136 -58.5t155 -23.5q139 0 218 74.5t79 198.5v59h-201q-218 0 -337.5 120t-119.5 347q0 241 153 383.5 t409 142.5h268v-833h168q10 0 10 -8v-142q0 -10 -10 -10h-168v-49zM359 1286l225 408h86l227 -408h-139l-129 264l-133 -264h-137z" />
<glyph unicode="&#x6ca;" horiz-adv-x="1133" d="M801 160v674h-88q-182 0 -283.5 -96t-101.5 -269q0 -160 69.5 -234.5t210.5 -74.5h193zM975 -49q0 -209 -123.5 -326t-349.5 -117q-209 0 -369 105l82 137q66 -35 136 -58.5t155 -23.5q139 0 218 74.5t79 198.5v59h-201q-218 0 -337.5 120t-119.5 347q0 241 153 383.5 t409 142.5h268v-833h168q10 0 10 -8v-142q0 -10 -10 -10h-168v-49zM502 1188q-48 0 -81.5 29t-33.5 94t33.5 94t81.5 29q52 0 83 -31.5t31 -91.5q0 -59 -30.5 -91t-83.5 -32zM856 1188q-53 0 -84 32t-31 91t30.5 91t84.5 32q55 0 85 -33.5t30 -89.5t-30 -89.5t-85 -33.5z " />
<glyph unicode="&#x6cb;" horiz-adv-x="1133" arabic-form="final" d="M801 160v674h-88q-182 0 -283.5 -96t-101.5 -269q0 -160 69.5 -234.5t210.5 -74.5h193zM975 -49q0 -209 -123.5 -326t-349.5 -117q-209 0 -369 105l82 137q66 -35 136 -58.5t155 -23.5q139 0 218 74.5t79 198.5v59h-201q-218 0 -337.5 120t-119.5 347q0 241 153 383.5 t409 142.5h268v-833h168q10 0 10 -8v-142q0 -10 -10 -10h-168v-49zM629 1464q-46 0 -76 26.5t-30 86.5q0 59 30 86t76 27q43 0 74.5 -27.5t31.5 -85.5q0 -60 -31.5 -86.5t-74.5 -26.5zM453 1188q-48 0 -81.5 29t-33.5 94t33.5 94t81.5 29q55 0 85 -33.5t30 -89.5t-30 -89.5 t-85 -33.5zM807 1188q-53 0 -84 32t-31 91t30.5 91t84.5 32q55 0 85 -33.5t30 -89.5t-30 -89.5t-85 -33.5z" />
<glyph unicode="&#x6cd;" horiz-adv-x="2218" d="M788 -492q-191 0 -301 133t-110 361q0 107 13.5 183t47.5 161l-364 -104l-33 102l500 199l77 -131q-57 -181 -57 -398q0 -166 68.5 -256t197.5 -90h381q146 0 242 54t96 131q0 42 -37 71.5t-115 52.5q-158 45 -213.5 77t-86.5 81t-31 117q0 118 70.5 228t182.5 178.5 t224 68.5q69 0 122 -24.5t99 -70.5t118 -160q88 -142 130.5 -191t72.5 -72.5t63.5 -36t72.5 -12.5h10q10 0 10 -8v-142q0 -10 -10 -10h-10q-87 0 -166.5 38.5t-163.5 127.5q-27 29 -105 141q-92 133 -152 184.5t-113 51.5q-56 0 -121 -44t-107.5 -108t-42.5 -115 q0 -39 46 -66.5t198 -73.5q124 -37 184 -91.5t60 -130.5q0 -406 -527 -406h-420z" />
<glyph unicode="&#x6ce;" horiz-adv-x="766" d="M-10 0q-10 0 -10 10v142q0 8 10 8h393v833h182v-993h-575zM123 -410q-48 0 -81.5 29t-33.5 94t33.5 94t81.5 29q52 0 83 -31.5t31 -91.5q0 -59 -30.5 -91t-83.5 -32zM477 -410q-53 0 -84 32t-31 91t30.5 91t84.5 32q55 0 85 -33.5t30 -89.5t-30 -89.5t-85 -33.5z M756 1696l-225 -408h-127l-228 408h160l129 -264l133 264h158z" />
<glyph unicode="&#x6ce;" horiz-adv-x="801" d="M-10 0q-10 0 -10 10v142q0 8 10 8h332v833h182v-833h307q10 0 10 -8v-142q0 -10 -10 -10h-821zM242 -410q-48 0 -81.5 29t-33.5 94t33.5 94t81.5 29q52 0 83 -31.5t31 -91.5q0 -59 -30.5 -91t-83.5 -32zM596 -410q-53 0 -84 32t-31 91t30.5 91t84.5 32q55 0 85 -33.5 t30 -89.5t-30 -89.5t-85 -33.5zM701 1696l-225 -408h-127l-228 408h160l129 -264l133 264h158z" />
<glyph unicode="&#x6ce;" horiz-adv-x="1974" d="M545 -492q-192 0 -302 133t-110 361q0 107 17.5 193t54.5 176h170q-23 -57 -35.5 -109.5t-17.5 -101.5t-5 -146q0 -166 69 -256t198 -90h381q146 0 242 54.5t96 130.5q0 42 -38 72t-115 52q-155 44 -212.5 77t-88 82t-30.5 116q0 118 70.5 228t182.5 178.5t224 68.5 q69 0 122.5 -25t100.5 -72.5t117 -157.5q88 -142 130.5 -191t72.5 -72.5t63 -36t72 -12.5h11q10 0 10 -8v-142q0 -10 -10 -10h-11q-86 0 -165.5 38.5t-163.5 127.5q-24 25 -105 141q-99 140 -157 188t-109 48q-56 0 -120 -43t-107 -107.5t-43 -116.5q0 -34 36.5 -61 t117.5 -51q147 -43 208.5 -75t93 -75.5t31.5 -99.5q0 -406 -526 -406h-420zM905 1029l-225 -408h-127l-228 408h160l129 -264l133 264h158z" />
<glyph unicode="&#x6cf;" horiz-adv-x="1133" d="M801 160v674h-88q-182 0 -283.5 -96t-101.5 -269q0 -160 69.5 -234.5t210.5 -74.5h193zM975 -49q0 -209 -123.5 -326t-349.5 -117q-209 0 -369 105l82 137q66 -35 136 -58.5t155 -23.5q139 0 218 74.5t79 198.5v59h-201q-218 0 -337.5 120t-119.5 347q0 241 153 383.5 t409 142.5h268v-833h168q10 0 10 -8v-142q0 -10 -10 -10h-168v-49zM621 1188q-53 0 -84 32t-31 91t30.5 91t84.5 32q55 0 85 -33.5t30 -89.5t-30 -89.5t-85 -33.5z" />
<glyph unicode="&#x6d0;" horiz-adv-x="1974" arabic-form="final" d="M545 -492q-192 0 -302 133t-110 361q0 107 17.5 193t54.5 176h170q-23 -57 -35.5 -109.5t-17.5 -101.5t-5 -146q0 -166 69 -256t198 -90h381q146 0 242 54.5t96 130.5q0 42 -38 72t-115 52q-155 44 -212.5 77t-88 82t-30.5 116q0 118 70.5 228t182.5 178.5t224 68.5 q69 0 122.5 -25t100.5 -72.5t117 -157.5q88 -142 130.5 -191t72.5 -72.5t63 -36t72 -12.5h11q10 0 10 -8v-142q0 -10 -10 -10h-11q-86 0 -165.5 38.5t-163.5 127.5q-24 25 -105 141q-99 140 -157 188t-109 48q-56 0 -120 -43t-107 -107.5t-43 -116.5q0 -34 36.5 -61 t117.5 -51q147 -43 208.5 -75t93 -75.5t31.5 -99.5q0 -406 -526 -406h-420zM834 -1123q-34 0 -57 20.5t-23 65.5q0 46 23 66t57 20q32 0 56 -20t24 -66q0 -45 -24 -65.5t-56 -20.5zM834 -863q-34 0 -57 20t-23 66q0 45 23 65.5t57 20.5q32 0 56 -20.5t24 -65.5 q0 -46 -24 -66t-56 -20z" />
<glyph unicode="&#x6d1;" horiz-adv-x="1974" d="M545 -492q-192 0 -302 133t-110 361q0 107 17.5 193t54.5 176h170q-23 -57 -35.5 -109.5t-17.5 -101.5t-5 -146q0 -166 69 -256t198 -90h381q146 0 242 54.5t96 130.5q0 42 -38 72t-115 52q-155 44 -212.5 77t-88 82t-30.5 116q0 118 70.5 228t182.5 178.5t224 68.5 q69 0 122.5 -25t100.5 -72.5t117 -157.5q88 -142 130.5 -191t72.5 -72.5t63 -36t72 -12.5h11q10 0 10 -8v-142q0 -10 -10 -10h-11q-86 0 -165.5 38.5t-163.5 127.5q-24 25 -105 141q-99 140 -157 188t-109 48q-56 0 -120 -43t-107 -107.5t-43 -116.5q0 -34 36.5 -61 t117.5 -51q147 -43 208.5 -75t93 -75.5t31.5 -99.5q0 -406 -526 -406h-420zM827 -1002q-74 0 -74 79q0 41 21 59.5t53 18.5q31 0 53.5 -18.5t22.5 -59.5q0 -43 -22.5 -61t-53.5 -18zM704 -826q-80 0 -80 86q0 45 23 65.5t57 20.5q32 0 56 -20.5t24 -65.5q0 -47 -24 -66.5 t-56 -19.5zM952 -826q-80 0 -80 86q0 45 23 65.5t57 20.5q32 0 56 -20.5t24 -65.5q0 -47 -24 -66.5t-56 -19.5z" />
<glyph unicode="&#x6ee;" horiz-adv-x="1165" d="M92 160h682q-40 275 -153 468.5t-322 334.5l66 155q236 -125 384.5 -367t198.5 -591h228q10 0 10 -8v-142q0 -10 -10 -10h-1084v160zM88 1286l225 408h86l227 -408h-139l-129 264l-133 -264h-137z" />
<glyph unicode="&#x6ef;" horiz-adv-x="735" d="M492 0v-49q0 -207 -94 -325t-271 -118q-98 0 -209 58l53 137q50 -22 82 -28.5t70 -6.5q92 0 144 75t52 198v1052h173v-833h253q11 0 11 -8v-142q0 -10 -11 -10h-253zM162 1144l225 408h86l227 -408h-139l-129 264l-133 -264h-137z" />
<glyph unicode="&#x6fa;" horiz-adv-x="1798" d="M1325 0q-92 0 -169.5 30.5t-160.5 112.5q-45 -63 -120 -103t-179 -40h-706q-10 0 -10 10v142q0 8 10 8h293v674h174v-674h221q99 0 154 65.5t55 171.5v437h174v-492l-2 -23q51 -88 111.5 -123.5t154.5 -35.5h125v833h174v-993h-299zM958 1464q-46 0 -76 26.5t-30 86.5 q0 59 30 86t76 27q43 0 74.5 -27.5t31.5 -85.5q0 -60 -31.5 -86.5t-74.5 -26.5zM782 1188q-48 0 -81.5 29t-33.5 94t33.5 94t81.5 29q55 0 85 -33.5t30 -89.5t-30 -89.5t-85 -33.5zM1136 1188q-53 0 -84 32t-31 91t30.5 91t84.5 32q55 0 85 -33.5t30 -89.5t-30 -89.5 t-85 -33.5zM975 -410q-53 0 -84 32t-31 91t30.5 91t84.5 32q55 0 85 -33.5t30 -89.5t-30 -89.5t-85 -33.5z" />
<glyph unicode="&#x6fa;" horiz-adv-x="1888" d="M1325 0q-92 0 -169.5 30.5t-160.5 112.5q-45 -63 -120 -103t-179 -40h-706q-10 0 -10 10v142q0 8 10 8h293v674h174v-674h221q99 0 154 65.5t55 171.5v437h174v-492l-2 -23q51 -88 111.5 -123.5t154.5 -35.5h125v833h174v-833h274q11 0 11 -8v-142q0 -10 -11 -10h-573z M958 1464q-46 0 -76 26.5t-30 86.5q0 59 30 86t76 27q43 0 74.5 -27.5t31.5 -85.5q0 -60 -31.5 -86.5t-74.5 -26.5zM782 1188q-48 0 -81.5 29t-33.5 94t33.5 94t81.5 29q55 0 85 -33.5t30 -89.5t-30 -89.5t-85 -33.5zM1136 1188q-53 0 -84 32t-31 91t30.5 91t84.5 32 q55 0 85 -33.5t30 -89.5t-30 -89.5t-85 -33.5zM958 -410q-53 0 -84 32t-31 91t30.5 91t84.5 32q55 0 85 -33.5t30 -89.5t-30 -89.5t-85 -33.5z" />
<glyph unicode="&#x6fa;" horiz-adv-x="2634" d="M2071 0q-92 0 -169.5 30.5t-160.5 110.5q-47 -63 -122 -102t-177 -39h-240q0 -242 -123 -367t-387 -125h-147q-190 0 -301 140t-111 385q0 126 22 255.5t62 227.5h170q-70 -177 -70 -483q0 -175 70 -270t197 -95h100q178 0 261 81t83 245v840h174v-674h221q99 0 154 65.5 t55 171.5v437h174v-492l-2 -23q51 -89 113 -124t154 -35h124v833h175v-833h274q10 0 10 -8v-142q0 -10 -10 -10h-573zM1726 1464q-46 0 -76 26.5t-30 86.5q0 59 30 86t76 27q43 0 74.5 -27.5t31.5 -85.5q0 -60 -31.5 -86.5t-74.5 -26.5zM1550 1188q-48 0 -81.5 29t-33.5 94 t33.5 94t81.5 29q55 0 85 -33.5t30 -89.5t-30 -89.5t-85 -33.5zM1904 1188q-53 0 -84 32t-31 91t30.5 91t84.5 32q55 0 85 -33.5t30 -89.5t-30 -89.5t-85 -33.5zM1729 -410q-53 0 -84 32t-31 91t30.5 91t84.5 32q55 0 85 -33.5t30 -89.5t-30 -89.5t-85 -33.5z" />
<glyph unicode="&#x6fb;" horiz-adv-x="1604" d="M-10 0q-10 0 -10 10v142q0 8 10 8h250v772h174v-379q96 229 241 345t326 116q232 0 350.5 -126t118.5 -394v-494h-1460zM1276 160v325q0 189 -82.5 278t-249.5 89q-315 0 -530 -524v-168h862zM928 -548q-53 0 -84 32t-31 91t30.5 91t84.5 32q55 0 85 -33.5t30 -89.5 t-30 -89.5t-85 -33.5zM920 1188q-53 0 -84 32t-31 91t30.5 91t84.5 32q55 0 85 -33.5t30 -89.5t-30 -89.5t-85 -33.5z" />
<glyph unicode="&#x6fb;" horiz-adv-x="1710" d="M-10 0q-10 0 -10 10v142q0 8 10 8h250v772h174v-379q96 229 241 345t326 116q232 0 350.5 -126t118.5 -394v-334h270q11 0 11 -8v-142q0 -10 -11 -10h-1730zM1276 160v325q0 189 -82.5 278t-249.5 89q-315 0 -530 -524v-168h862zM928 -548q-53 0 -84 32t-31 91t30.5 91 t84.5 32q55 0 85 -33.5t30 -89.5t-30 -89.5t-85 -33.5zM920 1188q-53 0 -84 32t-31 91t30.5 91t84.5 32q55 0 85 -33.5t30 -89.5t-30 -89.5t-85 -33.5z" />
<glyph unicode="&#x6fb;" horiz-adv-x="2503" d="M1202 0q0 -248 -123 -370t-387 -122h-147q-190 0 -301 140t-111 385q0 126 22 255.5t62 227.5h170q-70 -177 -70 -483q0 -175 70 -270t197 -95h100q178 0 261 81t83 245v999h174v-440q96 229 241 345t326 116q232 0 350.5 -126t118.5 -394v-334h275q10 0 10 -8v-142 q0 -10 -10 -10h-1311zM2064 160v325q0 189 -82 278t-249 89q-317 0 -531 -520v-172h862zM1716 -548q-53 0 -84 32t-31 91t30.5 91t84.5 32q55 0 85 -33.5t30 -89.5t-30 -89.5t-85 -33.5zM1708 1188q-53 0 -84 32t-31 91t30.5 91t84.5 32q55 0 85 -33.5t30 -89.5t-30 -89.5 t-85 -33.5z" />
<glyph unicode="&#x6fc;" horiz-adv-x="1055" d="M-10 0q-10 0 -10 10v142q0 8 10 8h315q-65 55 -105 151t-40 213q0 231 132.5 360.5t354.5 129.5q88 0 162.5 -17.5t122.5 -42.5l-55 -153q-127 53 -240 53q-291 0 -291 -338q0 -159 69.5 -257.5t182.5 -98.5h365v-160h-973zM598 1188q-53 0 -84 32t-31 91t30.5 91 t84.5 32q55 0 85 -33.5t30 -89.5t-30 -89.5t-85 -33.5zM594 -410q-53 0 -84 32t-31 91t30.5 91t84.5 32q55 0 85 -33.5t30 -89.5t-30 -89.5t-85 -33.5z" />
<glyph unicode="&#x6fc;" horiz-adv-x="1217" d="M987 0q-86 0 -185 25.5t-194 76.5q-180 -102 -381 -102h-237q-10 0 -10 10v142q0 8 10 8h235q147 0 244 41q-79 57 -161.5 164.5t-140 232t-75.5 236.5q112 105 252.5 165t286.5 60q129 0 260 -41t229 -109q0 -212 -98 -400t-270 -306q114 -43 227 -43h248q10 0 10 -8 v-142q0 -10 -10 -10h-240zM610 293q158 107 235 235t87 295q-143 76 -295 76q-174 0 -348 -119q31 -140 116 -268t205 -219zM594 -410q-53 0 -84 32t-31 91t30.5 91t84.5 32q55 0 85 -33.5t30 -89.5t-30 -89.5t-85 -33.5zM598 1270q-53 0 -84 32t-31 91t30.5 91t84.5 32 q55 0 85 -33.5t30 -89.5t-30 -89.5t-85 -33.5z" />
<glyph unicode="&#x6fc;" horiz-adv-x="1257" d="M193 -262q0 128 74 241.5t237 225.5q-145 139 -247 310.5t-124 318.5q112 105 252.5 165t286.5 60q129 0 260 -41t229 -109q-4 -197 -99 -379.5t-274 -322.5q111 -47 232 -47h248q10 0 10 -8v-142q0 -10 -10 -10h-240q-78 0 -188 31t-197 78q-146 -93 -205 -177.5 t-59 -177.5q0 -131 76 -192.5t237 -61.5q81 0 155 10.5t146 22.5l23 -141q-148 -31 -228 -40t-170 -9q-198 0 -311.5 104t-113.5 291zM330 780q25 -118 110 -250t205 -231q157 108 236.5 235t91.5 289q-143 76 -295 76q-174 0 -348 -119zM678 -349q-53 0 -84 32t-31 91 t30.5 91t84.5 32q55 0 85 -33.5t30 -89.5t-30 -89.5t-85 -33.5zM678 1270q-53 0 -84 32t-31 91t30.5 91t84.5 32q55 0 85 -33.5t30 -89.5t-30 -89.5t-85 -33.5z" />
<glyph unicode="&#x6ff;" horiz-adv-x="1589" d="M799 160v239q0 151 -58.5 221t-173.5 70q-104 0 -162.5 -63.5t-58.5 -180.5q0 -131 79 -208.5t206 -77.5h168zM-10 0q-10 0 -10 10v142q0 8 10 8h317q-65 41 -104 119t-39 174q0 125 55 219.5t149.5 146t206.5 51.5q398 0 398 -440v-270h268v401q0 279 -126 411t-396 132 q-199 0 -379 -60l-47 158q192 64 426 64q334 0 515 -180.5t181 -507.5v-578h-1425zM502 1433l225 408h86l227 -408h-139l-129 264l-133 -264h-137z" />
<glyph unicode="&#x6ff;" horiz-adv-x="1671" d="M-10 0q-10 0 -10 10v142q0 8 10 8h317q-65 41 -104 119t-39 174q0 125 55 219.5t149.5 146t206.5 51.5q398 0 398 -440v-270h268v401q0 279 -126 411t-396 132q-199 0 -379 -60l-47 158q192 64 426 64q334 0 515 -180.5t181 -507.5v-418h266q11 0 11 -8v-142 q0 -10 -11 -10h-1691zM799 160v239q0 151 -58.5 221t-173.5 70q-104 0 -162.5 -63.5t-58.5 -180.5q0 -131 79 -208.5t206 -77.5h168zM502 1433l225 408h86l227 -408h-139l-129 264l-133 -264h-137z" />
<glyph unicode="&#x6ff;" horiz-adv-x="1733" d="M133 160h236q-66 42 -105 119.5t-39 173.5q0 125 54.5 219t150 146t207.5 52q397 0 397 -440v-270h269v401q0 280 -127 411.5t-396 131.5q-197 0 -379 -60l-47 158q192 64 426 64q332 0 514.5 -179.5t182.5 -508.5v-418h266q10 0 10 -8v-142q0 -10 -10 -10h-1610v160z M860 160v239q0 150 -57 220.5t-174 70.5q-104 0 -162.5 -63.5t-58.5 -180.5q0 -130 77.5 -208t206.5 -78h168zM568 1433l225 408h86l227 -408h-139l-129 264l-133 -264h-137z" />
<glyph unicode="&#x671;" horiz-adv-x="647" arabic-form="final" d="M205 1434h182v-1274h270q11 0 11 -8v-142q0 -10 -11 -10h-452v1434zM27 1671h94q72 209 229 209q85 0 130.5 -55t45.5 -154v-94h-499v94zM422 1671q0 60 -17.5 86.5t-54.5 26.5q-36 0 -68.5 -32t-47.5 -81h188z" />
<glyph unicode="&#x67e;" horiz-adv-x="1681" arabic-form="final" d="M516 0q-177 0 -280 106.5t-103 290.5q0 68 14.5 157t36.5 151h164q-31 -148 -31 -293q0 -112 53 -182t140 -70h735v833h174v-833h273q10 0 10 -8v-142q0 -10 -10 -10h-1176zM842 -688q-46 0 -76 26.5t-30 86.5q0 58 30 85t76 27q43 0 74.5 -27t31.5 -85 q0 -60 -31.5 -86.5t-74.5 -26.5zM666 -438q-48 0 -81.5 29t-33.5 94q0 64 33.5 93t81.5 29q54 0 84.5 -33t30.5 -89t-30 -89.5t-85 -33.5zM1020 -438q-53 0 -84 32t-31 91q0 58 31 90t84 32q54 0 84.5 -33t30.5 -89t-30 -89.5t-85 -33.5z" />
<glyph unicode="&#x67e;" horiz-adv-x="766" arabic-form="initial" d="M-10 0q-10 0 -10 10v142q0 8 10 8h393v833h182v-993h-575zM291 -688q-46 0 -76 26.5t-30 86.5q0 58 30 85t76 27q43 0 74.5 -27t31.5 -85q0 -60 -31.5 -86.5t-74.5 -26.5zM115 -438q-48 0 -81.5 29t-33.5 94q0 64 33.5 93t81.5 29q54 0 84.5 -33t30.5 -89t-30 -89.5 t-85 -33.5zM469 -438q-53 0 -84 32t-31 91q0 58 31 90t84 32q54 0 84.5 -33t30.5 -89t-30 -89.5t-85 -33.5z" />
</font>
</defs>
</svg>
